[2024大陆喜剧]非诚勿扰3[国语中字][WEB-MKV-2160P(4K)]

%title插图%num

◎译   名  If You Are the One III / 征婚启事
◎片   名  非诚勿扰3
◎年   代  2023
◎产   地  中国大陆
◎类   别  喜剧 / 爱情 / 科幻
◎语   言  汉语普通话
◎上映 日期  2023-12-30(中国大陆)
◎IMDb评分  N/A/10 from 49 users
◎IMDb链接  https://www.imdb.com/title/tt30253936/
◎豆瓣 评分  6.0/10 from 29813 users
◎豆瓣 链接  https://movie.douban.com/subject/26769592/
◎片   长  119分钟
◎导   演  冯小刚 Xiaogang Feng
◎编   剧  冯小刚 Xiaogang Feng / 张耀之 Yaozhi Zhang
◎主   演  葛优 You Ge
        舒淇 Qi Shu
        范伟 Wei Fan
        姚晨 Chen Yao
        李诚儒 Chengru Li
        关晓彤 Xiaotong Guan
        虞书欣 Shuxin Yu
        岳云鹏 Yunpeng Yue
        常远 Yuan Chang
        邬逸聪 Yicong Wu
        张涵予 Hanyu Zhang
        王宝强 Baoqiang Wang
        易小星 Joshua
        吕行 Xing Lü
        张磊 Lei Zhang
◎简  介

    2031年,已经步入老年的秦奋(葛优 饰)不再折腾,独自守在他和笑笑(舒淇 饰)小家中,等待着十年前突然离开自己投身环保事业的妻子倦鸟归林。曾经的旧友老范(范伟 饰)抓住人工智能的风口商机,创立了一家仿真人的高科技公司。为了排解生活中的寂寞,秦奋订做了和笑笑一模一样的仿真人。仿真人笑笑对主人高度服从,体贴入微,虽然让秦奋倍感喜悦,可是他终究思念那个让他深深爱恋却又颇感畏惧的真正妻子。就在他再次找到老范的公司,期望为仿真人修改性格的那一天,笑笑意外归来。当她得知一个仿真人正在陪伴着秦奋,她的脑中闪过了一个念头。
    不久之后,两个笑笑接连走入秦奋的家门…

视频信息

General
Unique ID                   : 262600941511534048072485895653987838350 (0xC58F1A06EC4086EC86B25844DDF9E98E)
Complete name               : \2.168.1.108\downloads\【高清影视之家发布 www.HDBTHD.com】非诚勿扰3[国语配音+中文字幕].If.You.Are.the.One.3.2023.2160p.WEB-DL.H265.HDR.DDP5.1.Atmos-DreamHD\If.You.Are.the.One.3.2023.2160p.WEB-DL.H265.HDR.DDP5.1.Atmos-DreamHD.mkv
Format                      : Matroska
Format version              : Version 4
File size                   : 8.69 GiB
Duration                    : 1 h 59 min
Overall bit rate            : 10.4 Mb/s
Frame rate                  : 24.000 FPS
Encoded date                : 2024-02-10 05:15:15 UTC
Writing application         : mkvmerge v79.0 ('Funeral Pyres') 64-bit
Writing library             : libebml v1.4.4 + libmatroska v1.7.1

Video
ID                          : 1
Format                      : HEVC
Format/Info                 : High Efficiency Video Coding
Format profile              : Main 10@L5@Main
HDR format                  : HDR Vivid, Version 1
Codec ID                    : V_MPEGH/ISO/HEVC
Duration                    : 1 h 59 min
Bit rate                    : 8 557 kb/s
Width                       : 3 840 pixels
Height                      : 1 608 pixels
Display aspect ratio        : 2.39:1
Frame rate mode             : Constant
Frame rate                  : 24.000 FPS
Color space                 : YUV
Chroma subsampling          : 4:2:0
Bit depth                   : 10 bits
Bits/(Pixel*Frame)          : 0.058
Stream size                 : 7.14 GiB (82%)
Default                     : Yes
Forced                      : No
Color range                 : Limited
Color primaries             : BT.2020
Transfer characteristics    : PQ
Matrix coefficients         : BT.2020 non-constant
Mastering display color pri : R: x=0.708000 y=0.292000, G: x=0.170000 y=0.797000, B: x=0.130000 y=0.046000, White point: x=0.312700 y=0.329000
Mastering display luminance : min: 0.0001 cd/m2, max: 1000 cd/m2
Maximum Content Light Level : 681 cd/m2
Maximum Frame-Average Light : 86 cd/m2

Audio #1
ID                          : 2
Format                      : E-AC-3 JOC
Format/Info                 : Enhanced AC-3 with Joint Object Coding
Commercial name             : Dolby Digital Plus with Dolby Atmos
Codec ID                    : A_EAC3
Duration                    : 1 h 59 min
Bit rate mode               : Constant
Bit rate                    : 448 kb/s
Channel(s)                  : 6 channels
Channel layout              : L R C LFE Ls Rs
Sampling rate               : 48.0 kHz
Frame rate                  : 31.250 FPS (1536 SPF)
Compression mode            : Lossy
Stream size                 : 383 MiB (4%)
Title                       : Mandarin [DDP5.1 Atmos]
Language                    : Chinese
Service kind                : Complete Main
Default                     : Yes
Forced                      : No
Complexity index            : 16
Number of dynamic objects   : 15
Bed channel count           : 1 channel
Bed channel configuration   : LFE

Audio #2
ID                          : 3
Format                      : E-AC-3
Format/Info                 : Enhanced AC-3
Commercial name             : Dolby Digital Plus
Codec ID                    : A_EAC3
Duration                    : 1 h 59 min
Bit rate mode               : Constant
Bit rate                    : 448 kb/s
Channel(s)                  : 6 channels
Channel layout              : L R C LFE Ls Rs
Sampling rate               : 48.0 kHz
Frame rate                  : 31.250 FPS (1536 SPF)
Compression mode            : Lossy
Stream size                 : 383 MiB (4%)
Title                       : Mandarin [DDP5.1]
Language                    : Chinese
Service kind                : Complete Main
Default                     : No
Forced                      : No

Audio #3
ID                          : 4
Format                      : E-AC-3
Format/Info                 : Enhanced AC-3
Commercial name             : Dolby Digital Plus
Codec ID                    : A_EAC3
Duration                    : 1 h 59 min
Bit rate mode               : Constant
Bit rate                    : 256 kb/s
Channel(s)                  : 6 channels
Channel layout              : L R C LFE Ls Rs
Sampling rate               : 48.0 kHz
Frame rate                  : 31.250 FPS (1536 SPF)
Compression mode            : Lossy
Stream size                 : 219 MiB (2%)
Title                       : Mandarin [DDP5.1]
Language                    : Chinese
Service kind                : Complete Main
Default                     : No
Forced                      : No

Audio #4
ID                          : 5
Format                      : E-AC-3
Format/Info                 : Enhanced AC-3
Commercial name             : Dolby Digital Plus
Codec ID                    : A_EAC3
Duration                    : 1 h 59 min
Bit rate mode               : Constant
Bit rate                    : 256 kb/s
Channel(s)                  : 2 channels
Channel layout              : L R
Sampling rate               : 48.0 kHz
Frame rate                  : 31.250 FPS (1536 SPF)
Bit depth                   : 32 bits
Compression mode            : Lossy
Stream size                 : 219 MiB (2%)
Title                       : Mandarin [DDP2.0]
Language                    : Chinese
Service kind                : Complete Main
Default                     : No
Forced                      : No

Audio #5
ID                          : 6
Format                      : AAC LC
Format/Info                 : Advanced Audio Codec Low Complexity
Codec ID                    : A_AAC-2
Duration                    : 1 h 59 min
Bit rate                    : 256 kb/s
Channel(s)                  : 2 channels
Channel layout              : L R
Sampling rate               : 44.1 kHz
Frame rate                  : 43.066 FPS (1024 SPF)
Compression mode            : Lossy
Stream size                 : 219 MiB (2%)
Title                       : Mandarin [AAC2.0]
Language                    : Chinese
Default                     : No
Forced                      : No

Audio #6
ID                          : 7
Format                      : AAC LC
Format/Info                 : Advanced Audio Codec Low Complexity
Codec ID                    : A_AAC-2
Duration                    : 1 h 59 min
Bit rate                    : 192 kb/s
Channel(s)                  : 2 channels
Channel layout              : L R
Sampling rate               : 44.1 kHz
Frame rate                  : 43.066 FPS (1024 SPF)
Compression mode            : Lossy
Stream size                 : 162 MiB (2%)
Title                       : Mandarin [AAC2.0]
Language                    : Chinese
Default                     : No
Forced                      : No

视频截图

留下评论