[2023欧美动作]Aquaman and the Lost Kingdom 海王2:失落的王国[中文字幕][WEB-MKV-2160P(4K)]

%title插图%num

◎标  题 海王2:失落的王国
◎译  名 海王与失落的王国 / 水行侠 失落王国(台) / 水行侠与失落王国(港) / 潜水侠2 / 水人2 / Aquaman 2
◎片  名 Aquaman and the Lost Kingdom
◎年  代 2023
◎产  地 美国
◎类  别 动作 / 科幻 / 奇幻 / 冒险
◎语  言 英语
◎上映日期 2023-12-20(中国大陆) / 2023-12-22(美国)
◎IMDb评分 6/10 (31021人评价)
◎IMDb链接 https://www.imdb.com/title/tt9663764/
◎豆瓣评分 6.5/10 (113733人评价)
◎豆瓣链接 https://movie.douban.com/subject/30444942/
◎片  长 124分钟
◎导  演 温子仁 James Wan
◎编  剧 大卫·莱斯利·约翰逊-麦戈德里克 David Leslie Johnson-McGoldrick
      莫尔特·魏辛格 Mort Weisinger
      保罗·诺里斯 Paul Norris
      温子仁 James Wan
      杰森·莫玛 Jason Momoa
      托马斯·帕亚·西比特 Thomas Pa’a Sibbett
◎演  员 杰森·莫玛 Jason Momoa
      帕特里克·威尔森 Patrick Wilson
      叶海亚·阿卜杜勒-迈丁 Yahya Abdul-Mateen II
      安珀·赫德 Amber Heard
      妮可·基德曼 Nicole Kidman
      兰道尔·朴 Randall Park
      特穆拉·莫里森 Temuera Morrison
      杜夫·龙格尔 Dolph Lundgren
      马丁·肖特 Martin Short
      赵嘉妮 Jani Zhao
      茵蒂娅·摩尔 Indya Moore
      文森特·里根 Vincent Regan
      皮鲁·埃斯贝克 Pilou Asbæk
      英格丽·温 Ingrid Wan
      杰·麦克唐纳 Jay McDonald
      泰勒·伯格 Tyler Burger
      马多克斯·克鲁兹-波特 Maddox Cruz-Porter
      瑞弗·奥·莫莫伊·格林 River Ao Moemoea Green
      尼考·济慈·格林 Nikau Keats Green
      波蒂·麦凯布 Bodhi McCabe
      埃利奥特·奥本-佩普拉 Elliot Oben-Pepra
      卢西恩·奥本-佩普拉 Lucian Oben-Pepra
      阿瑟·罗-迈耶 Arthur Rowe-Mayer
      娜塔莉·萨福兰 Natalia Safran
      格兰特·哈盖尔 Grant Huggair
      泰·布特 Tai Boothe
      凯蒂·玛格丽特·霍尔 Katie Margaret Hall
      迈克尔·奥拉德勒 Michael Oladele
      杰克·瓦尔杜克 Jack Waldouck
      里卡多·莫利纳 Ricardo Molina
      索姆·卡皮拉 Sohm Kapila
      马克·郭 Mark Kwak
      迪伦·西尔弗 Dylan Silver
      朱迪·布莱克特 Judy Blackett
      恬伊·基 Tianyi Kiy
      彼得·西奥鲍兹 Peter Theobalds

◎简  介
    在上一次试图击败海王(杰森·莫玛 Jason Momoa 饰)未果后,黑蝠鲼(叶海亚·阿卜杜勒-迈丁 Yahya Abdul-Mateen II 饰)依然不甘放弃为父报仇,誓要消灭海王。这一次,他找到了传说中的黑暗三叉戟,释放出古老的邪恶力量,比以往更来势汹汹。为了与之抗衡,海王向被囚禁狱中的弟弟奥姆(也是前亚特兰蒂斯国王,帕特里克·威尔森 Patrick Wilson 饰)求助,组成了出乎意料的联盟。他俩必须抛弃前仇旧怨,携手并肩作战,才能从即将到来的灾难中保卫王国,拯救家人,拯救世界。

视频信息

General
Unique ID                   : 281137480295003215360381601194612486967 (0xD3811BF3273381DC7B172B2F5ABDF337)
Complete name               : \2.168.1.108\downloads\【高清影视之家发布 www.HDBTHD.com】海王2:失落的王国[中文字幕].Aquaman.and.the.Lost.Kingdom.2023.V2.2160p.iT.WEB-DL.H265.HDR.DDP5.1.Atmos-SONYHD\Aquaman.and.the.Lost.Kingdom.2023.V2.2160p.iT.WEB-DL.H265.HDR.DDP5.1.Atmos-SONYHD.mkv
Format                      : Matroska
Format version              : Version 4
File size                   : 21.6 GiB
Duration                    : 2 h 4 min
Overall bit rate            : 24.9 Mb/s
Frame rate                  : 23.976 FPS
Movie name                  : ADWeb
Encoded date                : 2024-01-23 07:28:55 UTC
Writing application         : mkvmerge v82.0 ('I'm The President') 64-bit
Writing library             : libebml v1.4.5 + libmatroska v1.7.1
Muxer                       : ADWeb

Video
ID                          : 1
Format                      : HEVC
Format/Info                 : High Efficiency Video Coding
Format profile              : Main 10@L5@High
HDR format                  : SMPTE ST 2094 App 4, Version 1, HDR10+ Profile B compatible
Codec ID                    : V_MPEGH/ISO/HEVC
Duration                    : 2 h 4 min
Bit rate                    : 24.1 Mb/s
Width                       : 3 840 pixels
Height                      : 2 160 pixels
Display aspect ratio        : 16:9
Frame rate mode             : Constant
Frame rate                  : 23.976 FPS
Color space                 : YUV
Chroma subsampling          : 4:2:0 (Type 2)
Bit depth                   : 10 bits
Bits/(Pixel*Frame)          : 0.121
Stream size                 : 20.9 GiB (97%)
Default                     : Yes
Forced                      : No
Color range                 : Limited
Color primaries             : BT.2020
Transfer characteristics    : PQ
Matrix coefficients         : BT.2020 non-constant
Mastering display color pri : BT.2020
Mastering display luminance : min: 0.0050 cd/m2, max: 1000 cd/m2
Maximum Content Light Level : 2339 cd/m2
Maximum Frame-Average Light : 994 cd/m2

Audio
ID                          : 2
Format                      : E-AC-3 JOC
Format/Info                 : Enhanced AC-3 with Joint Object Coding
Commercial name             : Dolby Digital Plus with Dolby Atmos
Codec ID                    : A_EAC3
Duration                    : 2 h 4 min
Bit rate mode               : Constant
Bit rate                    : 768 kb/s
Channel(s)                  : 6 channels
Channel layout              : L R C LFE Ls Rs
Sampling rate               : 48.0 kHz
Frame rate                  : 31.250 FPS (1536 SPF)
Compression mode            : Lossy
Stream size                 : 682 MiB (3%)
Title                       : English
Language                    : English
Service kind                : Complete Main
Default                     : Yes
Forced                      : No
Complexity index            : 16
Number of dynamic objects   : 15
Bed channel count           : 1 channel
Bed channel configuration   : LFE

Text #1
ID                          : 3
Format                      : UTF-8
Codec ID                    : S_TEXT/UTF8
Codec ID/Info               : UTF-8 Plain Text
Duration                    : 2 h 3 min
Bit rate                    : 34 b/s
Frame rate                  : 0.138 FPS
Count of elements           : 1022
Stream size                 : 30.7 KiB (0%)
Title                       : Chinese Simplified
Language                    : Chinese
Default                     : Yes
Forced                      : No

Text #2
ID                          : 4
Format                      : UTF-8
Codec ID                    : S_TEXT/UTF8
Codec ID/Info               : UTF-8 Plain Text
Duration                    : 2 h 3 min
Bit rate                    : 34 b/s
Frame rate                  : 0.138 FPS
Count of elements           : 1022
Stream size                 : 30.7 KiB (0%)
Title                       : Chinese Traditional
Language                    : Chinese
Default                     : Yes
Forced                      : No

Text #3
ID                          : 5
Format                      : UTF-8
Codec ID                    : S_TEXT/UTF8
Codec ID/Info               : UTF-8 Plain Text
Duration                    : 1 h 56 min
Bit rate                    : 0 b/s
Frame rate                  : 0.004 FPS
Count of elements           : 27
Stream size                 : 786 Bytes (0%)
Title                       : French Canadian (Forced)
Language                    : French
Default                     : No
Forced                      : Yes

Text #4
ID                          : 6
Format                      : UTF-8
Codec ID                    : S_TEXT/UTF8
Codec ID/Info               : UTF-8 Plain Text
Duration                    : 1 h 56 min
Bit rate                    : 0 b/s
Frame rate                  : 0.004 FPS
Count of elements           : 27
Stream size                 : 786 Bytes (0%)
Title                       : Canadian French (Forced)
Language                    : French
Default                     : No
Forced                      : Yes

Text #5
ID                          : 7
Format                      : UTF-8
Codec ID                    : S_TEXT/UTF8
Codec ID/Info               : UTF-8 Plain Text
Duration                    : 2 h 3 min
Bit rate                    : 34 b/s
Frame rate                  : 0.138 FPS
Count of elements           : 1015
Stream size                 : 31.0 KiB (0%)
Title                       : Korean
Language                    : Korean
Default                     : No
Forced                      : No

Text #6
ID                          : 8
Format                      : UTF-8
Codec ID                    : S_TEXT/UTF8
Codec ID/Info               : UTF-8 Plain Text
Duration                    : 2 h 3 min
Bit rate                    : 40 b/s
Frame rate                  : 0.140 FPS
Count of elements           : 1031
Stream size                 : 36.2 KiB (0%)
Title                       : Spanish
Language                    : Spanish
Default                     : No
Forced                      : No

Text #7
ID                          : 9
Format                      : UTF-8
Codec ID                    : S_TEXT/UTF8
Codec ID/Info               : UTF-8 Plain Text
Duration                    : 1 h 56 min
Bit rate                    : 0 b/s
Frame rate                  : 0.004 FPS
Count of elements           : 28
Stream size                 : 808 Bytes (0%)
Title                       : Spanish (Forced)
Language                    : Spanish
Default                     : No
Forced                      : Yes

视频截图

留下评论