[2023欧美剧情]Napoleon 拿破仑[官译多国字幕][WEB-MKV-2160P(4K)]

%title插图%num

◎标  题 拿破仑
◎译  名 士兵行囊 / Kitbag
◎片  名 Napoleon
◎年  代 2023
◎产  地 英国 / 美国
◎类  别 剧情 / 动作 / 传记 / 历史 / 战争
◎语  言 英语
◎上映日期 2023-12-01(中国大陆) / 2023-11-22(美国)
◎IMDb评分 6.9/10 (4678人评价)
◎IMDb链接 https://www.imdb.com/title/tt13287846/
◎豆瓣链接 https://movie.douban.com/subject/35224919/
◎片  长 157分钟 / 250分钟(导演剪辑版)
◎导  演 雷德利·斯科特 Ridley Scott
◎编  剧 大卫·斯卡尔帕 David Scarpa
◎演  员 华金·菲尼克斯 Joaquin Phoenix
      凡妮莎·柯比 Vanessa Kirby
      露德温·塞尼耶 Ludivine Sagnier
      本·迈尔斯 Ben Miles
      凯瑟琳·沃克 Catherine Walker
      伊恩·麦克尼奇 Ian McNeice
      塔哈·拉希姆 Tahar Rahim
      优素福·凯尔科尔 Youssef Kerkour
      保罗·瑞斯 Paul Rhys
      爱德华·菲利波纳特 Edouard Philipponnat
      马修·尼达姆 Matthew Needham
      约翰·霍林沃思 John Hollingworth
      斯科特·汉迪 Scott Handy
      安娜·毛恩 Anna Mawn
      汉娜·弗林 Hannah Flynn
      山姆·克莱恩 Sam Crane
      达维德·特治 Davide Tucci
      本杰明·奇夫斯 Benjamin Chivers
      乔纳森·巴恩维尔 Jonathan Barnwell
      彼得·桑迪斯-克拉克 Peter Sandys-Clarke
      菲尔·康韦尔 Phil Cornwell
      加文·斯派克 Gavin Spokes
      哈里·陶乐西 Harry Taurasi
      科马克·海德-科林 Cormac Hyde-Corrin
      罗威娜·本特利 Rowena Bentley
      艾琳·安斯沃思 Erin Ainsworth
      吉恩-帕斯卡尔·海涅曼德 Jean-Pascal Heynemand
      大卫·韦雷 David Verrey
      约翰·霍奇金森 John Hodgkinson
      伊莎贝拉·布朗森 Isabella Brownson
      斯蒂芬·菲切特 Stephane Fichet
      爱德华E.沃特 Edward E. White
      布赖恩·罗杰 Brian Rodger
      詹姆斯·伯克里 James Berkery
      利亚姆·爱德华兹 Liam Edwards
      鲁伯特·艾弗雷特 Rupert Everett
      安迪·M·米利根 Andy M Milligan

◎简  介
    影片讲述了法国皇帝拿破仑(华金·菲尼克斯 Joaquin Phoenix 饰)从士兵到帝王波澜壮阔的一生,展现了拿破仑非凡的军事才能和战略远见。并通过他与其唯一挚爱约瑟芬(凡妮莎·柯比 Vanessa Kirby 饰)之间复杂纠葛的传奇情史,揭露了拿破仑鲜为人知的内心世界。

视频信息[展开/隐藏]

General
Unique ID                   : 5033065136511784636335945052763029281 (0x3C955451D2F1B1A563A0750636D7F21)
Complete name               : \\192.168.1.108\downloads\【高清影视之家发布 www.HDBTHD.com】拿破仑[简繁英字幕].Napoleon.2023.2160p.iTunes.WEB-DL.DDP.5.1.Atmos.HDR10+.H.265-DreamHD\Napoleon.2023.2160p.iTunes.WEB-DL.DDP.5.1.Atmos.HDR10+.H.265-DreamHD.mkv
Format                      : Matroska
Format version              : Version 4
File size                   : 26.4 GiB
Duration                    : 2 h 38 min
Overall bit rate            : 23.9 Mb/s
Frame rate                  : 23.889 FPS
Encoded date                : 2024-01-08 15:07:14 UTC
Writing application         : mkvmerge v78.0 ('Running') 64-bit
Writing library             : libebml v1.4.4 + libmatroska v1.7.1
Muxer                       : CHDBits WEB Group
Video
ID                          : 1
Format                      : HEVC
Format/Info                 : High Efficiency Video Coding
Format profile              : Main 10@L5@High
HDR format                  : SMPTE ST 2094 App 4, Version 1, HDR10+ Profile B compatible
Codec ID                    : V_MPEGH/ISO/HEVC
Duration                    : 2 h 38 min
Bit rate                    : 23.1 Mb/s
Width                       : 3 840 pixels
Height                      : 1 608 pixels
Display aspect ratio        : 2.39:1
Frame rate mode             : Variable
Frame rate                  : 23.889 FPS
Color space                 : YUV
Chroma subsampling          : 4:2:0 (Type 2)
Bit depth                   : 10 bits
Bits/(Pixel*Frame)          : 0.157
Stream size                 : 25.6 GiB (97%)
Language                    : English
Default                     : Yes
Forced                      : No
Color range                 : Limited
Color primaries             : BT.2020
Transfer characteristics    : PQ
Matrix coefficients         : BT.2020 non-constant
Mastering display color pri : Display P3
Mastering display luminance : min: 0.0050 cd/m2, max: 1000 cd/m2
Maximum Content Light Level : 816 cd/m2
Maximum Frame-Average Light : 500 cd/m2
Audio
ID                          : 2
Format                      : E-AC-3 JOC
Format/Info                 : Enhanced AC-3 with Joint Object Coding
Commercial name             : Dolby Digital Plus with Dolby Atmos
Codec ID                    : A_EAC3
Duration                    : 2 h 37 min
Bit rate mode               : Constant
Bit rate                    : 768 kb/s
Channel(s)                  : 6 channels
Channel layout              : L R C LFE Ls Rs
Sampling rate               : 48.0 kHz
Frame rate                  : 31.250 FPS (1536 SPF)
Compression mode            : Lossy
Stream size                 : 866 MiB (3%)
Language                    : English
Service kind                : Complete Main
Default                     : Yes
Forced                      : No
Complexity index            : 16
Number of dynamic objects   : 15
Bed channel count           : 1 channel
Bed channel configuration   : LFE
Text #1
ID                          : 3
Format                      : UTF-8
Codec ID                    : S_TEXT/UTF8
Codec ID/Info               : UTF-8 Plain Text
Duration                    : 11 s 136 ms
Bit rate                    : 48 b/s
Frame rate                  : 0.180 FPS
Count of elements           : 2
Stream size                 : 67.0 Bytes (0%)
Title                       : Forced
Language                    : English
Default                     : Yes
Forced                      : Yes
Text #2
ID                          : 4
Format                      : UTF-8
Codec ID                    : S_TEXT/UTF8
Codec ID/Info               : UTF-8 Plain Text
Duration                    : 2 h 25 min
Bit rate                    : 36 b/s
Frame rate                  : 0.140 FPS
Count of elements           : 1225
Stream size                 : 38.5 KiB (0%)
Language                    : English
Default                     : No
Forced                      : No
Text #3
ID                          : 5
Format                      : UTF-8
Codec ID                    : S_TEXT/UTF8
Codec ID/Info               : UTF-8 Plain Text
Duration                    : 2 h 36 min
Bit rate                    : 31 b/s
Frame rate                  : 0.136 FPS
Count of elements           : 1284
Stream size                 : 36.7 KiB (0%)
Title                       : Simplified
Language                    : Chinese (Simplified)
Default                     : No
Forced                      : No
Text #4
ID                          : 6
Format                      : UTF-8
Codec ID                    : S_TEXT/UTF8
Codec ID/Info               : UTF-8 Plain Text
Duration                    : 2 h 36 min
Bit rate                    : 31 b/s
Frame rate                  : 0.136 FPS
Count of elements           : 1284
Stream size                 : 35.8 KiB (0%)
Title                       : Traditional
Language                    : Chinese (Traditional)
Default                     : No
Forced                      : No
Text #5
ID                          : 7
Format                      : UTF-8
Codec ID                    : S_TEXT/UTF8
Codec ID/Info               : UTF-8 Plain Text
Duration                    : 2 h 36 min
Bit rate                    : 29 b/s
Frame rate                  : 0.136 FPS
Count of elements           : 1284
Stream size                 : 34.3 KiB (0%)
Title                       : Traditional
Language                    : Chinese (Traditional)
Default                     : No
Forced                      : No
Text #6
ID                          : 8
Format                      : UTF-8
Codec ID                    : S_TEXT/UTF8
Codec ID/Info               : UTF-8 Plain Text
Duration                    : 2 h 36 min
Bit rate                    : 49 b/s
Frame rate                  : 0.135 FPS
Count of elements           : 1273
Stream size                 : 57.3 KiB (0%)
Language                    : Arabic
Default                     : No
Forced                      : No
Text #7
ID                          : 9
Format                      : UTF-8
Codec ID                    : S_TEXT/UTF8
Codec ID/Info               : UTF-8 Plain Text
Duration                    : 2 h 36 min
Bit rate                    : 56 b/s
Frame rate                  : 0.116 FPS
Count of elements           : 1095
Stream size                 : 65.2 KiB (0%)
Language                    : Bulgarian
Default                     : No
Forced                      : No
Text #8
ID                          : 10
Format                      : UTF-8
Codec ID                    : S_TEXT/UTF8
Codec ID/Info               : UTF-8 Plain Text
Duration                    : 2 h 36 min
Bit rate                    : 33 b/s
Frame rate                  : 0.132 FPS
Count of elements           : 1242
Stream size                 : 38.2 KiB (0%)
Language                    : Czech
Default                     : No
Forced                      : No
Text #9
ID                          : 11
Format                      : UTF-8
Codec ID                    : S_TEXT/UTF8
Codec ID/Info               : UTF-8 Plain Text
Duration                    : 2 h 36 min
Bit rate                    : 32 b/s
Frame rate                  : 0.121 FPS
Count of elements           : 1141
Stream size                 : 37.3 KiB (0%)
Language                    : Danish
Default                     : No
Forced                      : No
Text #10
ID                          : 12
Format                      : UTF-8
Codec ID                    : S_TEXT/UTF8
Codec ID/Info               : UTF-8 Plain Text
Duration                    : 2 h 36 min
Bit rate                    : 35 b/s
Frame rate                  : 0.132 FPS
Count of elements           : 1240
Stream size                 : 40.7 KiB (0%)
Language                    : German
Default                     : No
Forced                      : No
Text #11
ID                          : 13
Format                      : UTF-8
Codec ID                    : S_TEXT/UTF8
Codec ID/Info               : UTF-8 Plain Text
Duration                    : 2 h 36 min
Bit rate                    : 65 b/s
Frame rate                  : 0.134 FPS
Count of elements           : 1263
Stream size                 : 75.1 KiB (0%)
Language                    : Greek
Default                     : No
Forced                      : No
Text #12
ID                          : 14
Format                      : UTF-8
Codec ID                    : S_TEXT/UTF8
Codec ID/Info               : UTF-8 Plain Text
Duration                    : 2 h 36 min
Bit rate                    : 35 b/s
Frame rate                  : 0.137 FPS
Count of elements           : 1289
Stream size                 : 40.8 KiB (0%)
Title                       : Latin America
Language                    : Spanish (Latin America)
Default                     : No
Forced                      : No
Text #13
ID                          : 15
Format                      : UTF-8
Codec ID                    : S_TEXT/UTF8
Codec ID/Info               : UTF-8 Plain Text
Duration                    : 2 h 36 min
Bit rate                    : 36 b/s
Frame rate                  : 0.137 FPS
Count of elements           : 1287
Stream size                 : 41.8 KiB (0%)
Language                    : Spanish (ES)
Default                     : No
Forced                      : No
Text #14
ID                          : 16
Format                      : UTF-8
Codec ID                    : S_TEXT/UTF8
Codec ID/Info               : UTF-8 Plain Text
Duration                    : 2 h 36 min
Bit rate                    : 34 b/s
Frame rate                  : 0.134 FPS
Count of elements           : 1262
Stream size                 : 39.9 KiB (0%)
Language                    : Estonian
Default                     : No
Forced                      : No
Text #15
ID                          : 17
Format                      : UTF-8
Codec ID                    : S_TEXT/UTF8
Codec ID/Info               : UTF-8 Plain Text
Duration                    : 2 h 36 min
Bit rate                    : 32 b/s
Frame rate                  : 0.132 FPS
Count of elements           : 1243
Stream size                 : 37.8 KiB (0%)
Language                    : Finnish
Default                     : No
Forced                      : No
Text #16
ID                          : 18
Format                      : UTF-8
Codec ID                    : S_TEXT/UTF8
Codec ID/Info               : UTF-8 Plain Text
Duration                    : 2 h 36 min
Bit rate                    : 33 b/s
Frame rate                  : 0.140 FPS
Count of elements           : 1318
Stream size                 : 38.0 KiB (0%)
Title                       : Canada
Language                    : French (CA)
Default                     : No
Forced                      : No
Text #17
ID                          : 19
Format                      : UTF-8
Codec ID                    : S_TEXT/UTF8
Codec ID/Info               : UTF-8 Plain Text
Duration                    : 2 h 36 min
Bit rate                    : 33 b/s
Frame rate                  : 0.140 FPS
Count of elements           : 1318
Stream size                 : 38.0 KiB (0%)
Language                    : French (FR)
Default                     : No
Forced                      : No
Text #18
ID                          : 20
Format                      : UTF-8
Codec ID                    : S_TEXT/UTF8
Codec ID/Info               : UTF-8 Plain Text
Duration                    : 2 h 36 min
Bit rate                    : 46 b/s
Frame rate                  : 0.136 FPS
Count of elements           : 1282
Stream size                 : 53.2 KiB (0%)
Language                    : Hebrew
Default                     : No
Forced                      : No
Text #19
ID                          : 21
Format                      : UTF-8
Codec ID                    : S_TEXT/UTF8
Codec ID/Info               : UTF-8 Plain Text
Duration                    : 2 h 36 min
Bit rate                    : 96 b/s
Frame rate                  : 0.136 FPS
Count of elements           : 1284
Stream size                 : 111 KiB (0%)
Language                    : Hindi
Default                     : No
Forced                      : No
Text #20
ID                          : 22
Format                      : UTF-8
Codec ID                    : S_TEXT/UTF8
Codec ID/Info               : UTF-8 Plain Text
Duration                    : 2 h 36 min
Bit rate                    : 37 b/s
Frame rate                  : 0.136 FPS
Count of elements           : 1282
Stream size                 : 43.7 KiB (0%)
Language                    : Hungarian
Default                     : No
Forced                      : No
Text #21
ID                          : 23
Format                      : UTF-8
Codec ID                    : S_TEXT/UTF8
Codec ID/Info               : UTF-8 Plain Text
Duration                    : 2 h 36 min
Bit rate                    : 35 b/s
Frame rate                  : 0.136 FPS
Count of elements           : 1279
Stream size                 : 40.5 KiB (0%)
Language                    : Indonesian
Default                     : No
Forced                      : No
Text #22
ID                          : 24
Format                      : UTF-8
Codec ID                    : S_TEXT/UTF8
Codec ID/Info               : UTF-8 Plain Text
Duration                    : 2 h 36 min
Bit rate                    : 37 b/s
Frame rate                  : 0.140 FPS
Count of elements           : 1318
Stream size                 : 43.5 KiB (0%)
Language                    : Italian
Default                     : No
Forced                      : No
Text #23
ID                          : 25
Format                      : UTF-8
Codec ID                    : S_TEXT/UTF8
Codec ID/Info               : UTF-8 Plain Text
Duration                    : 2 h 36 min
Bit rate                    : 34 b/s
Frame rate                  : 0.139 FPS
Count of elements           : 1310
Stream size                 : 39.9 KiB (0%)
Language                    : Japanese
Default                     : No
Forced                      : No
Text #24
ID                          : 26
Format                      : UTF-8
Codec ID                    : S_TEXT/UTF8
Codec ID/Info               : UTF-8 Plain Text
Duration                    : 2 h 36 min
Bit rate                    : 38 b/s
Frame rate                  : 0.136 FPS
Count of elements           : 1280
Stream size                 : 43.9 KiB (0%)
Language                    : Korean
Default                     : No
Forced                      : No
Text #25
ID                          : 27
Format                      : UTF-8
Codec ID                    : S_TEXT/UTF8
Codec ID/Info               : UTF-8 Plain Text
Duration                    : 2 h 36 min
Bit rate                    : 34 b/s
Frame rate                  : 0.135 FPS
Count of elements           : 1274
Stream size                 : 39.2 KiB (0%)
Language                    : Lithuanian
Default                     : No
Forced                      : No
Text #26
ID                          : 28
Format                      : UTF-8
Codec ID                    : S_TEXT/UTF8
Codec ID/Info               : UTF-8 Plain Text
Duration                    : 2 h 36 min
Bit rate                    : 36 b/s
Frame rate                  : 0.136 FPS
Count of elements           : 1282
Stream size                 : 41.8 KiB (0%)
Language                    : Latvian
Default                     : No
Forced                      : No
Text #27
ID                          : 29
Format                      : UTF-8
Codec ID                    : S_TEXT/UTF8
Codec ID/Info               : UTF-8 Plain Text
Duration                    : 2 h 36 min
Bit rate                    : 34 b/s
Frame rate                  : 0.135 FPS
Count of elements           : 1274
Stream size                 : 39.6 KiB (0%)
Language                    : Malay
Default                     : No
Forced                      : No
Text #28
ID                          : 30
Format                      : UTF-8
Codec ID                    : S_TEXT/UTF8
Codec ID/Info               : UTF-8 Plain Text
Duration                    : 2 h 36 min
Bit rate                    : 34 b/s
Frame rate                  : 0.118 FPS
Count of elements           : 1114
Stream size                 : 39.2 KiB (0%)
Language                    : Dutch
Default                     : No
Forced                      : No
Text #29
ID                          : 31
Format                      : UTF-8
Codec ID                    : S_TEXT/UTF8
Codec ID/Info               : UTF-8 Plain Text
Duration                    : 2 h 36 min
Bit rate                    : 33 b/s
Frame rate                  : 0.129 FPS
Count of elements           : 1216
Stream size                 : 38.3 KiB (0%)
Language                    : Norwegian
Default                     : No
Forced                      : No
Text #30
ID                          : 32
Format                      : UTF-8
Codec ID                    : S_TEXT/UTF8
Codec ID/Info               : UTF-8 Plain Text
Duration                    : 2 h 36 min
Bit rate                    : 36 b/s
Frame rate                  : 0.135 FPS
Count of elements           : 1275
Stream size                 : 41.6 KiB (0%)
Language                    : Polish
Default                     : No
Forced                      : No
Text #31
ID                          : 33
Format                      : UTF-8
Codec ID                    : S_TEXT/UTF8
Codec ID/Info               : UTF-8 Plain Text
Duration                    : 2 h 36 min
Bit rate                    : 34 b/s
Frame rate                  : 0.135 FPS
Count of elements           : 1274
Stream size                 : 40.2 KiB (0%)
Language                    : Portuguese
Default                     : No
Forced                      : No
Text #32
ID                          : 34
Format                      : UTF-8
Codec ID                    : S_TEXT/UTF8
Codec ID/Info               : UTF-8 Plain Text
Duration                    : 2 h 36 min
Bit rate                    : 35 b/s
Frame rate                  : 0.134 FPS
Count of elements           : 1261
Stream size                 : 40.4 KiB (0%)
Title                       : Brazil
Language                    : Portuguese (BR)
Default                     : No
Forced                      : No
Text #33
ID                          : 35
Format                      : UTF-8
Codec ID                    : S_TEXT/UTF8
Codec ID/Info               : UTF-8 Plain Text
Duration                    : 2 h 36 min
Bit rate                    : 56 b/s
Frame rate                  : 0.138 FPS
Count of elements           : 1296
Stream size                 : 65.4 KiB (0%)
Language                    : Russian
Default                     : No
Forced                      : No
Text #34
ID                          : 36
Format                      : UTF-8
Codec ID                    : S_TEXT/UTF8
Codec ID/Info               : UTF-8 Plain Text
Duration                    : 2 h 36 min
Bit rate                    : 34 b/s
Frame rate                  : 0.136 FPS
Count of elements           : 1279
Stream size                 : 39.3 KiB (0%)
Language                    : Slovak
Default                     : No
Forced                      : No
Text #35
ID                          : 37
Format                      : UTF-8
Codec ID                    : S_TEXT/UTF8
Codec ID/Info               : UTF-8 Plain Text
Duration                    : 2 h 36 min
Bit rate                    : 30 b/s
Frame rate                  : 0.132 FPS
Count of elements           : 1243
Stream size                 : 35.2 KiB (0%)
Language                    : Slovenian
Default                     : No
Forced                      : No
Text #36
ID                          : 38
Format                      : UTF-8
Codec ID                    : S_TEXT/UTF8
Codec ID/Info               : UTF-8 Plain Text
Duration                    : 2 h 36 min
Bit rate                    : 33 b/s
Frame rate                  : 0.126 FPS
Count of elements           : 1186
Stream size                 : 38.0 KiB (0%)
Language                    : Swedish
Default                     : No
Forced                      : No
Text #37
ID                          : 39
Format                      : UTF-8
Codec ID                    : S_TEXT/UTF8
Codec ID/Info               : UTF-8 Plain Text
Duration                    : 2 h 36 min
Bit rate                    : 115 b/s
Frame rate                  : 0.136 FPS
Count of elements           : 1283
Stream size                 : 132 KiB (0%)
Language                    : Tamil
Default                     : No
Forced                      : No
Text #38
ID                          : 40
Format                      : UTF-8
Codec ID                    : S_TEXT/UTF8
Codec ID/Info               : UTF-8 Plain Text
Duration                    : 2 h 36 min
Bit rate                    : 91 b/s
Frame rate                  : 0.136 FPS
Count of elements           : 1283
Stream size                 : 106 KiB (0%)
Language                    : Telugu
Default                     : No
Forced                      : No
Text #39
ID                          : 41
Format                      : UTF-8
Codec ID                    : S_TEXT/UTF8
Codec ID/Info               : UTF-8 Plain Text
Duration                    : 2 h 36 min
Bit rate                    : 88 b/s
Frame rate                  : 0.136 FPS
Count of elements           : 1283
Stream size                 : 101 KiB (0%)
Language                    : Thai
Default                     : No
Forced                      : No
Text #40
ID                          : 42
Format                      : UTF-8
Codec ID                    : S_TEXT/UTF8
Codec ID/Info               : UTF-8 Plain Text
Duration                    : 2 h 36 min
Bit rate                    : 35 b/s
Frame rate                  : 0.135 FPS
Count of elements           : 1274
Stream size                 : 40.5 KiB (0%)
Language                    : Turkish
Default                     : No
Forced                      : No
Text #41
ID                          : 43
Format                      : UTF-8
Codec ID                    : S_TEXT/UTF8
Codec ID/Info               : UTF-8 Plain Text
Duration                    : 2 h 36 min
Bit rate                    : 58 b/s
Frame rate                  : 0.136 FPS
Count of elements           : 1281
Stream size                 : 67.6 KiB (0%)
Language                    : Ukrainian
Default                     : No
Forced                      : No
Text #42
ID                          : 44
Format                      : UTF-8
Codec ID                    : S_TEXT/UTF8
Codec ID/Info               : UTF-8 Plain Text
Duration                    : 2 h 36 min
Bit rate                    : 46 b/s
Frame rate                  : 0.136 FPS
Count of elements           : 1280
Stream size                 : 53.4 KiB (0%)
Language                    : Vietnamese
Default                     : No
Forced                      : No

视频截图

下载地址

拿破仑[简繁英字幕].Napoleon.2023.2160p.iTunes.WEB-DL.DDP.5.1.Atmos.HDR10+.H.265-DreamHD 26.43GB:magnet:?xt=urn:btih:6068CA8CC814DD7F395B291C08E6AB9925CC5375

拿破仑[简繁英字幕].Napoleon.2023.2160p.iTunes.WEB-DL.DDP.5.1.Atmos.H.265-DreamHD 22.62GB:magnet:?xt=urn:btih:A48A85599766385C8273D4176224D6DE8865FB77

拿破仑.2023.HD2160P.AAC.H264.CHS-ENG.BTSJ6 11.39GB:magnet:?xt=urn:btih:742ca023997a0a6827d77848bb548740f44f8c79

拿破仑[简繁英字幕].Napoleon.2023.1080p.iTunes.WEB-DL.DDP.5.1.Atmos.H.264-DreamHD 11.83GB:magnet:?xt=urn:btih:0467745934CFBEB74D71CA081E50435D793286F5

拿破仑.2023.HD1080P.AAC.H264.CHS-ENG.BTSJ6 5.91GB:magnet:?xt=urn:btih:a0ea78e2ccf108b3cf4ea096e0f3a41e5e4cebda

拿破仑.Napoleon.2023.HD1080P.X264.AAC.English.CHS-ENG.BDYS 3.76GB:magnet:?xt=urn:btih:24e0456e8589ed167ee406491b68caa508afa95b

阳光电影dygod.org.拿破仑.2023.BD.1080P.中英双字.mkv 2.68GB:magnet:?xt=urn:btih:eb214cdc8f667dea9e28d7184ded38674506797a

留下评论