[2023欧美剧情]Doctor Who: The Church on Ruby Road 神秘博士:红宝石路教堂[官译多国字幕][WEB-MKV-2160P(4K)]

%title插图%num

◎标  题 神秘博士:红宝石路教堂
◎译  名 神秘博士:2023圣诞特别集 / 神秘博士:2023圣诞特辑 / Doctor Who Christmas Special 2023
◎片  名 Doctor Who: The Church on Ruby Road
◎年  代 2023
◎产  地 英国
◎类  别 剧情 / 科幻 / 冒险
◎语  言 英语
◎上映日期 2023-12-25(英国)
◎IMDb评分 7.2/10 (4128人评价)
◎IMDb链接 https://www.imdb.com/title/tt28289422/
◎豆瓣链接 https://movie.douban.com/subject/36190874/
◎片  长 56
◎导  演 马克·托德莱 Mark Tonderai
      迪伦·霍姆斯·威廉斯 Dylan Holmes Williams
◎编  剧 拉塞尔·T·戴维斯 Russell T. Davies
◎演  员 舒提·盖特瓦 Ncuti Gatwa
      米莉·吉布森 Millie Gibson
      邦妮·兰福德 Bonnie Langford
      Giuseppe Lentini
      戴维娜·迈克考 Davina McCall
      吉克克斯·蒙索 Jinkx Monsoon
◎简  介

  由 Ncuti Gatwa 饰演的第十五任博士接管了 TARDIS,开始了他的第一次史诗般的冒险,而由 Millie Gibson 饰演的 Ruby Sunday 也将加入他的行列,首次成为博士的伴侣。
  在这一集中,博士将与神秘的神话妖精面对面,他的生活将与米莉-吉布森饰演的鲁比-桑德(Ruby Sunday)发生碰撞。
  人们对 Ruby Sunday 知之甚少,因为她在圣诞夜被遗弃时还是个婴儿。现在,她与妈妈卡拉和祖母切丽生活在一起,当她遇到博士时,她的世界即将发生翻天覆地的变化。

视频信息[展开隐藏]

General
Unique ID                   : 65982956565529667232917241219639634787 (0x31A3DAED86EEA6384AE7970B04776B63)
Complete name               : \\192.168.1.108\downloads\【高清影视之家发布 www.HDBTHD.com】神秘博士:红宝石路教堂[中文字幕].2023.2160p.DSNP.WEB-DL.DDP.5.1.HDR10.H.265-DreamHD\Doctor.Who.The.Church.on.Ruby.Road.2023.2160p.DSNP.WEB-DL.DDP.5.1.HDR10.H.265-DreamHD.mkv
Format                      : Matroska
Format version              : Version 4
File size                   : 5.52 GiB
Duration                    : 55 min 20 s
Overall bit rate            : 14.3 Mb/s
Frame rate                  : 25.000 FPS
Encoded date                : 2023-12-26 06:21:15 UTC
Writing application         : mkvmerge v78.0 ('Running') 64-bit
Writing library             : libebml v1.4.4 + libmatroska v1.7.1
Muxer                       : CHDBits WEB Group
Video
ID                          : 1
Format                      : HEVC
Format/Info                 : High Efficiency Video Coding
Format profile              : Main 10@L5@High
HDR format                  : SMPTE ST 2086, HDR10 compatible
Codec ID                    : V_MPEGH/ISO/HEVC
Duration                    : 55 min 20 s
Bit rate                    : 14.0 Mb/s
Width                       : 3 840 pixels
Height                      : 2 160 pixels
Display aspect ratio        : 16:9
Frame rate mode             : Constant
Frame rate                  : 25.000 FPS
Color space                 : YUV
Chroma subsampling          : 4:2:0
Bit depth                   : 10 bits
Bits/(Pixel*Frame)          : 0.068
Stream size                 : 5.42 GiB (98%)
Language                    : English
Default                     : Yes
Forced                      : No
Color range                 : Limited
Color primaries             : BT.2020
Transfer characteristics    : PQ
Matrix coefficients         : BT.2020 non-constant
Mastering display color pri : BT.2020
Mastering display luminance : min: 0.0001 cd/m2, max: 1000 cd/m2
Audio
ID                          : 2
Format                      : E-AC-3
Format/Info                 : Enhanced AC-3
Commercial name             : Dolby Digital Plus
Codec ID                    : A_EAC3
Duration                    : 55 min 20 s
Bit rate mode               : Constant
Bit rate                    : 256 kb/s
Channel(s)                  : 6 channels
Channel layout              : L R C LFE Ls Rs
Sampling rate               : 48.0 kHz
Frame rate                  : 31.250 FPS (1536 SPF)
Compression mode            : Lossy
Stream size                 : 101 MiB (2%)
Language                    : English
Service kind                : Complete Main
Default                     : Yes
Forced                      : No
Text #1
ID                          : 3
Format                      : UTF-8
Codec ID                    : S_TEXT/UTF8
Codec ID/Info               : UTF-8 Plain Text
Duration                    : 54 min 17 s
Bit rate                    : 74 b/s
Frame rate                  : 0.278 FPS
Count of elements           : 906
Stream size                 : 29.5 KiB (0%)
Title                       : United Kingdom (SDH)
Language                    : English (GB)
Default                     : No
Forced                      : No
Text #2
ID                          : 4
Format                      : UTF-8
Codec ID                    : S_TEXT/UTF8
Codec ID/Info               : UTF-8 Plain Text
Duration                    : 55 min 4 s
Bit rate                    : 57 b/s
Frame rate                  : 0.225 FPS
Count of elements           : 744
Stream size                 : 23.1 KiB (0%)
Title                       : Traditional
Language                    : Chinese (Traditional)
Default                     : No
Forced                      : No
Text #3
ID                          : 5
Format                      : UTF-8
Codec ID                    : S_TEXT/UTF8
Codec ID/Info               : UTF-8 Plain Text
Duration                    : 55 min 4 s
Bit rate                    : 58 b/s
Frame rate                  : 0.212 FPS
Count of elements           : 701
Stream size                 : 23.5 KiB (0%)
Language                    : Czech
Default                     : No
Forced                      : No
Text #4
ID                          : 6
Format                      : UTF-8
Codec ID                    : S_TEXT/UTF8
Codec ID/Info               : UTF-8 Plain Text
Duration                    : 55 min 4 s
Bit rate                    : 57 b/s
Frame rate                  : 0.202 FPS
Count of elements           : 666
Stream size                 : 23.2 KiB (0%)
Language                    : Danish
Default                     : No
Forced                      : No
Text #5
ID                          : 7
Format                      : UTF-8
Codec ID                    : S_TEXT/UTF8
Codec ID/Info               : UTF-8 Plain Text
Duration                    : 55 min 4 s
Bit rate                    : 57 b/s
Frame rate                  : 0.222 FPS
Count of elements           : 734
Stream size                 : 23.1 KiB (0%)
Language                    : German
Default                     : No
Forced                      : No
Text #6
ID                          : 8
Format                      : UTF-8
Codec ID                    : S_TEXT/UTF8
Codec ID/Info               : UTF-8 Plain Text
Duration                    : 55 min 4 s
Bit rate                    : 99 b/s
Frame rate                  : 0.218 FPS
Count of elements           : 720
Stream size                 : 40.2 KiB (0%)
Language                    : Greek
Default                     : No
Forced                      : No
Text #7
ID                          : 9
Format                      : UTF-8
Codec ID                    : S_TEXT/UTF8
Codec ID/Info               : UTF-8 Plain Text
Duration                    : 55 min 4 s
Bit rate                    : 59 b/s
Frame rate                  : 0.210 FPS
Count of elements           : 693
Stream size                 : 24.2 KiB (0%)
Title                       : Latin America
Language                    : Spanish (Latin America)
Default                     : No
Forced                      : No
Text #8
ID                          : 10
Format                      : UTF-8
Codec ID                    : S_TEXT/UTF8
Codec ID/Info               : UTF-8 Plain Text
Duration                    : 55 min 4 s
Bit rate                    : 60 b/s
Frame rate                  : 0.219 FPS
Count of elements           : 722
Stream size                 : 24.3 KiB (0%)
Language                    : Spanish (ES)
Default                     : No
Forced                      : No
Text #9
ID                          : 11
Format                      : UTF-8
Codec ID                    : S_TEXT/UTF8
Codec ID/Info               : UTF-8 Plain Text
Duration                    : 55 min 4 s
Bit rate                    : 55 b/s
Frame rate                  : 0.201 FPS
Count of elements           : 663
Stream size                 : 22.5 KiB (0%)
Language                    : Finnish
Default                     : No
Forced                      : No
Text #10
ID                          : 12
Format                      : UTF-8
Codec ID                    : S_TEXT/UTF8
Codec ID/Info               : UTF-8 Plain Text
Duration                    : 55 min 4 s
Bit rate                    : 57 b/s
Frame rate                  : 0.224 FPS
Count of elements           : 740
Stream size                 : 23.3 KiB (0%)
Language                    : French (FR)
Default                     : No
Forced                      : No
Text #11
ID                          : 13
Format                      : UTF-8
Codec ID                    : S_TEXT/UTF8
Codec ID/Info               : UTF-8 Plain Text
Duration                    : 55 min 4 s
Bit rate                    : 56 b/s
Frame rate                  : 0.219 FPS
Count of elements           : 722
Stream size                 : 22.7 KiB (0%)
Language                    : Hungarian
Default                     : No
Forced                      : No
Text #12
ID                          : 14
Format                      : UTF-8
Codec ID                    : S_TEXT/UTF8
Codec ID/Info               : UTF-8 Plain Text
Duration                    : 55 min 4 s
Bit rate                    : 54 b/s
Frame rate                  : 0.223 FPS
Count of elements           : 738
Stream size                 : 21.9 KiB (0%)
Language                    : Italian
Default                     : No
Forced                      : No
Text #13
ID                          : 15
Format                      : UTF-8
Codec ID                    : S_TEXT/UTF8
Codec ID/Info               : UTF-8 Plain Text
Duration                    : 55 min 4 s
Bit rate                    : 55 b/s
Frame rate                  : 0.224 FPS
Count of elements           : 740
Stream size                 : 22.3 KiB (0%)
Language                    : Japanese
Default                     : No
Forced                      : No
Text #14
ID                          : 16
Format                      : UTF-8
Codec ID                    : S_TEXT/UTF8
Codec ID/Info               : UTF-8 Plain Text
Duration                    : 55 min 4 s
Bit rate                    : 68 b/s
Frame rate                  : 0.224 FPS
Count of elements           : 740
Stream size                 : 27.7 KiB (0%)
Language                    : Korean
Default                     : No
Forced                      : No
Text #15
ID                          : 17
Format                      : UTF-8
Codec ID                    : S_TEXT/UTF8
Codec ID/Info               : UTF-8 Plain Text
Duration                    : 55 min 4 s
Bit rate                    : 52 b/s
Frame rate                  : 0.166 FPS
Count of elements           : 548
Stream size                 : 21.2 KiB (0%)
Language                    : Dutch
Default                     : No
Forced                      : No
Text #16
ID                          : 18
Format                      : UTF-8
Codec ID                    : S_TEXT/UTF8
Codec ID/Info               : UTF-8 Plain Text
Duration                    : 55 min 4 s
Bit rate                    : 56 b/s
Frame rate                  : 0.167 FPS
Count of elements           : 553
Stream size                 : 23.0 KiB (0%)
Language                    : Norwegian
Default                     : No
Forced                      : No
Text #17
ID                          : 19
Format                      : UTF-8
Codec ID                    : S_TEXT/UTF8
Codec ID/Info               : UTF-8 Plain Text
Duration                    : 55 min 4 s
Bit rate                    : 53 b/s
Frame rate                  : 0.220 FPS
Count of elements           : 728
Stream size                 : 21.6 KiB (0%)
Language                    : Polish
Default                     : No
Forced                      : No
Text #18
ID                          : 20
Format                      : UTF-8
Codec ID                    : S_TEXT/UTF8
Codec ID/Info               : UTF-8 Plain Text
Duration                    : 55 min 4 s
Bit rate                    : 56 b/s
Frame rate                  : 0.225 FPS
Count of elements           : 742
Stream size                 : 22.8 KiB (0%)
Title                       : Brazil
Language                    : Portuguese (BR)
Default                     : No
Forced                      : No
Text #19
ID                          : 21
Format                      : UTF-8
Codec ID                    : S_TEXT/UTF8
Codec ID/Info               : UTF-8 Plain Text
Duration                    : 55 min 4 s
Bit rate                    : 57 b/s
Frame rate                  : 0.225 FPS
Count of elements           : 745
Stream size                 : 23.4 KiB (0%)
Language                    : Portuguese (PT)
Default                     : No
Forced                      : No
Text #20
ID                          : 22
Format                      : UTF-8
Codec ID                    : S_TEXT/UTF8
Codec ID/Info               : UTF-8 Plain Text
Duration                    : 55 min 4 s
Bit rate                    : 55 b/s
Frame rate                  : 0.195 FPS
Count of elements           : 643
Stream size                 : 22.3 KiB (0%)
Language                    : Romanian
Default                     : No
Forced                      : No
Text #21
ID                          : 23
Format                      : UTF-8
Codec ID                    : S_TEXT/UTF8
Codec ID/Info               : UTF-8 Plain Text
Duration                    : 55 min 4 s
Bit rate                    : 52 b/s
Frame rate                  : 0.217 FPS
Count of elements           : 716
Stream size                 : 21.3 KiB (0%)
Language                    : Slovak
Default                     : No
Forced                      : No
Text #22
ID                          : 24
Format                      : UTF-8
Codec ID                    : S_TEXT/UTF8
Codec ID/Info               : UTF-8 Plain Text
Duration                    : 55 min 4 s
Bit rate                    : 55 b/s
Frame rate                  : 0.216 FPS
Count of elements           : 715
Stream size                 : 22.5 KiB (0%)
Language                    : Swedish
Default                     : No
Forced                      : No
Text #23
ID                          : 25
Format                      : UTF-8
Codec ID                    : S_TEXT/UTF8
Codec ID/Info               : UTF-8 Plain Text
Duration                    : 55 min 4 s
Bit rate                    : 56 b/s
Frame rate                  : 0.223 FPS
Count of elements           : 738
Stream size                 : 22.8 KiB (0%)
Language                    : Turkish
Default                     : No
Forced                      : No
Menu
00:06:12.600                : en:Scene 1
00:21:27.800                : en:Scene 2
00:30:47.800                : en:Scene 3
00:38:10.480                : en:Scene 4
00:49:39.920                : en:Scene 5
00:54:26.400                : en:Credits

视频截图

留下评论