[2023日本动画]呪術廻戦 2 咒术回战 第2季[全23集][日语中字][WEB-MKV-2160P(4K)]

%title插图%num

◎译  名 咒术回战 第二季/呪術廻戦 第2期/呪術廻戦 懐玉・玉折
◎片  名 呪術廻戦 2
◎年  代 2023
◎产  地 日本
◎类  别 剧情/动画
◎语  言 日语
◎上映日期 2023-07-06(日本)
◎豆瓣评分 /10 from 0 users
◎豆瓣链接 https://douban.com/subject/35765350/
◎集  数 23
◎编  剧 濑古浩司 Hiroshi Seko
◎主  演 中村悠一 Yuuichi Nakamura
       樱井孝宏 Takahiro Sakurai
       远藤绫 Aya Endô
       永濑安娜 Anna Nagase
       子安武人 Takehito Koyasu
       榎木淳弥 Junya Enoki
       日高法子 Noriko Hidaka
       三石琴乃 Kotono Mitsuishi
       日笠阳子 Yoko Hikasa
       黑田崇矢 Takaya Kuroda
       津田健次郎 Kenjirô Tsuda
       濑户麻沙美 Asami Seto
       内田雄马 Yuma Uchida
       钉宫理惠 Rie Kugimiya
◎简  介

  最强2人,回不去的青春。2017年12月,乙骨忧太解除了祈本里香的诅咒。追溯到2006年(春天),高专时代的五条悟与夏油杰。作为咒术师活跃着,所向披靡的2人,接受来自咒术界拥有不死术式的要·天元的委托。委托有两个,天元的的适合者——被选中成为“星浆体”的天内理子,对那个少女的“护卫”和“抹去”两人为了维持咒术界而进行护卫任务,在那里自称伏黑的“术师杀手”以暗杀“星浆体”为目标介入。在之后被称为最强的咒术师和最恶的咒术师,五条与夏油,两人的过去被揭开…

视频信息

General
Unique ID                   : 84222978574118556398846851348473741698 (0x3F5CC171E4EBE9B0CF261ECB324E8182)
Complete name               : \2.168.1.108\downloads\【高清剧集网发布 www.DDHDTV.com】咒术回战 第二季[全23集][简繁英字幕].Jujutsu.Kaisen.S02.2023.2160p.B-Global.WEB-DL.x264.AAC-ZeroTV\Jujutsu.Kaisen.S02E01.2023.2160p.WEB-DL.x264.AAC-ZeroTV.mkv
Format                      : Matroska
Format version              : Version 4
File size                   : 1.30 GiB
Duration                    : 23 min 55 s
Overall bit rate            : 7 781 kb/s
Frame rate                  : 23.976 FPS
Encoded date                : 2023-07-06 15:58:40 UTC
Writing application         : mkvmerge v77.0 ('Elemental') 64-bit
Writing library             : libebml v1.4.4 + libmatroska v1.7.1

Video
ID                          : 1
Format                      : AVC
Format/Info                 : Advanced Video Codec
Format profile              : High@L5.1
Format settings             : CABAC / 5 Ref Frames
Format settings, CABAC      : Yes
Format settings, Reference  : 5 frames
Codec ID                    : V_MPEG4/ISO/AVC
Duration                    : 23 min 55 s
Bit rate                    : 7 589 kb/s
Width                       : 3 840 pixels
Height                      : 2 160 pixels
Display aspect ratio        : 16:9
Frame rate mode             : Constant
Frame rate                  : 23.976 (24000/1001) FPS
Original frame rate         : 23.976 (23976/1000) FPS
Color space                 : YUV
Chroma subsampling          : 4:2:0
Bit depth                   : 8 bits
Scan type                   : Progressive
Bits/(Pixel*Frame)          : 0.038
Stream size                 : 1.27 GiB (97%)
Title                       : Japanese
Language                    : Japanese
Default                     : Yes
Forced                      : No
Color range                 : Limited
Color primaries             : BT.709
Transfer characteristics    : BT.709
Matrix coefficients         : BT.709

Audio
ID                          : 2
Format                      : AAC LC
Format/Info                 : Advanced Audio Codec Low Complexity
Codec ID                    : A_AAC-2
Duration                    : 23 min 55 s
Bit rate                    : 192 kb/s
Channel(s)                  : 2 channels
Channel layout              : L R
Sampling rate               : 48.0 kHz
Frame rate                  : 46.875 FPS (1024 SPF)
Compression mode            : Lossy
Stream size                 : 33.0 MiB (2%)
Title                       : Japanese
Language                    : Japanese
Default                     : Yes
Forced                      : No

Text #1
ID                          : 3
Format                      : UTF-8
Codec ID                    : S_TEXT/UTF8
Codec ID/Info               : UTF-8 Plain Text
Duration                    : 23 min 46 s
Bit rate                    : 54 b/s
Frame rate                  : 0.257 FPS
Count of elements           : 367
Stream size                 : 9.48 KiB (0%)
Title                       : Chinese Simplified
Language                    : Chinese (Simplified)
Default                     : Yes
Forced                      : No

Text #2
ID                          : 4
Format                      : UTF-8
Codec ID                    : S_TEXT/UTF8
Codec ID/Info               : UTF-8 Plain Text
Duration                    : 23 min 46 s
Bit rate                    : 54 b/s
Frame rate                  : 0.257 FPS
Count of elements           : 367
Stream size                 : 9.48 KiB (0%)
Title                       : Chinese Traditional
Language                    : Chinese (Traditional)
Default                     : No
Forced                      : No

Text #3
ID                          : 5
Format                      : UTF-8
Codec ID                    : S_TEXT/UTF8
Codec ID/Info               : UTF-8 Plain Text
Duration                    : 23 min 46 s
Bit rate                    : 67 b/s
Frame rate                  : 0.258 FPS
Count of elements           : 368
Stream size                 : 11.8 KiB (0%)
Title                       : English
Language                    : English
Default                     : No
Forced                      : No

Text #4
ID                          : 6
Format                      : UTF-8
Codec ID                    : S_TEXT/UTF8
Codec ID/Info               : UTF-8 Plain Text
Duration                    : 23 min 49 s
Bit rate                    : 163 b/s
Frame rate                  : 0.248 FPS
Count of elements           : 354
Stream size                 : 28.5 KiB (0%)
Title                       : Thai
Language                    : Thai
Default                     : No
Forced                      : No

Text #5
ID                          : 7
Format                      : UTF-8
Codec ID                    : S_TEXT/UTF8
Codec ID/Info               : UTF-8 Plain Text
Duration                    : 23 min 50 s
Bit rate                    : 92 b/s
Frame rate                  : 0.273 FPS
Count of elements           : 390
Stream size                 : 16.2 KiB (0%)
Title                       : Vietnamese
Language                    : Vietnamese
Default                     : No
Forced                      : No

Text #6
ID                          : 8
Format                      : UTF-8
Codec ID                    : S_TEXT/UTF8
Codec ID/Info               : UTF-8 Plain Text
Duration                    : 23 min 46 s
Bit rate                    : 68 b/s
Frame rate                  : 0.258 FPS
Count of elements           : 368
Stream size                 : 11.9 KiB (0%)
Title                       : Indonesian
Language                    : Indonesian
Default                     : No
Forced                      : No

视频截图

留下评论