[2023欧美动作]Expend4bles 敢死队4:最终章[中英字幕][BD-MKV-1080P]

%title插图%num

◎标  题 敢死队4:最终章
◎译  名 敢死队4 / 浴血任务4(台) / 轰天猛将4(港) / The Expendables 4
◎片  名 Expend4bles
◎年  代 2023
◎产  地 美国
◎类  别 动作 / 惊悚 / 战争 / 冒险
◎语  言 英语
◎上映日期 2023-09-15(中国大陆) / 2023-09-22(美国)
◎IMDb评分 4.8/10 (22704人评价)
◎IMDb链接 https://www.imdb.com/title/tt3291150/
◎豆瓣评分 4.9/10 (29711人评价)
◎豆瓣链接 https://movie.douban.com/subject/25845297/
◎片  长 103分钟 / 101分钟(中国大陆)
◎导  演 斯科特·沃 Scott Waugh
◎编  剧 科特·维莫 Kurt Wimmer
      泰德·达格哈特 Tad Daggerhart
      麦克斯·亚当斯 Max Adams
      斯宾塞·科恩 Spenser Cohen
      戴夫·卡拉汉姆 Dave Callaham
      格雷戈里·波伊莱尔 Gregory Poirier
◎演  员 杰森·斯坦森 Jason Statham
      50分 50 Cent
      梅根·福克斯 Megan Fox
      杜夫·龙格尔 Dolph Lundgren
      托尼·贾 Tony Jaa
      伊科·乌艾斯 Iko Uwais
      安迪·加西亚 Andy Garcia
      西尔维斯特·史泰龙 Sylvester Stallone
      兰迪·库卓 Randy Couture
      雅各布·西皮奥 Jacob Scipio
      丽维·陈 Levy Tran
      露西·纽曼·威廉姆斯 Lucy Newman-Williams
      达伦·诺普 Daren Nop
      肯尼·巴特拉姆 Kenny ‘Cowboy’ Bartram
      科迪·麦基 Cody Mackie
      柯基·法尔考 Cokey Falkow
      丹楚朋 Dan Chupong
      卡里姆·赛迪 Karim Saidi
      塞缪尔·布莱克 Samuel Black
      亚当·马斯托 Adam Masto
      妮可·安德鲁斯 Nicole Andrews
      希拉·沙赫 Sheila Shah
      迈克·莫勒 Mike Möller
      杰森· 莱恩斯 Jason Lines
      提萨·佩尔科 Tjasa Perko

◎简  介
    聚焦一群资深雇佣兵的故事。讲述了敢死小队最后一次集结,登上外海一艘满载核弹的货轮,开展一场阻止巨轮核弹爆炸的惊天行动。

视频信息

General
Unique ID                   : 263949059510492551537136030708729951939 (0xC692BD60486CC8AB8A9297781F88B6C3)
Complete name               : E:\【高清影视之家发布 www.HDBTHD.com】敢死队4:最终章[HDR+杜比视界双版本][中文字幕].Expend4bles.2023.2160p.UHD.BluRay.x265.10bit.HDR.Atmos.TrueHD7.1-NukeHD\Expend4bles.2023.2160p.UHD.BluRay.x265.10bit.HDR.Atmos.TrueHD7.1-NukeHD.mkv
Format                      : Matroska
Format version              : Version 4
File size                   : 20.4 GiB
Duration                    : 1 h 43 min
Overall bit rate mode       : Variable
Overall bit rate            : 28.2 Mb/s
Frame rate                  : 23.976 FPS
Movie name                  : The Expendables 4
Encoded date                : 2023-11-28 12:28:40 UTC
Writing application         : mkvmerge v80.0 ('Roundabout') 64-bit
Writing library             : libebml v1.4.4 + libmatroska v1.7.1
Video
ID                          : 1
ID in the original source m : 4113 (0x1011)
Format                      : HEVC
Format/Info                 : High Efficiency Video Coding
Format profile              : Main 10@L5.1@Main
HDR format                  : Dolby Vision, Version 1.0, dvhe.07.06, BL+EL+RPU, Blu-ray compatible / SMPTE ST 2086, HDR10 compatible
Codec ID                    : V_MPEGH/ISO/HEVC
Duration                    : 1 h 43 min
Bit rate                    : 21.2 Mb/s
Width                       : 3 840 pixels
Height                      : 2 160 pixels
Display aspect ratio        : 16:9
Frame rate mode             : Constant
Frame rate                  : 23.976 (24000/1001) FPS
Color space                 : YUV
Chroma subsampling          : 4:2:0 (Type 2)
Bit depth                   : 10 bits
Bits/(Pixel*Frame)          : 0.106
Stream size                 : 15.3 GiB (75%)
Writing library             : x265 3.5+103-8f18e3ad3:[Windows][GCC 5.4.0][64 bit] 10bit
Encoding settings           : cpuid=1111039 / frame-threads=6 / numa-pools=32,32 / wpp / no-pmode / no-pme / no-psnr / no-ssim / log-level=2 / input-csp=1 / input-res=3840x2160 / interlace=0 / total-frames=0 / level-idc=51 / high-tier=1 / uhd-bd=0 / ref=4 / no-allow-non-conformance / repeat-headers / annexb / no-aud / no-eob / no-eos / no-hrd / info / hash=0 / temporal-layers=0 / no-open-gop / min-keyint=1 / keyint=240 / gop-lookahead=0 / bframes=4 / b-adapt=2 / b-pyramid / bframe-bias=0 / rc-lookahead=40 / lookahead-slices=0 / scenecut=40 / no-hist-scenecut / radl=0 / no-splice / no-intra-refresh / ctu=64 / min-cu-size=8 / no-rect / no-amp / max-tu-size=32 / tu-inter-depth=1 / tu-intra-depth=1 / limit-tu=0 / rdoq-level=2 / dynamic-rd=0.00 / no-ssim-rd / signhide / no-tskip / nr-intra=0 / nr-inter=0 / no-constrained-intra / no-strong-intra-smoothing / max-merge=3 / limit-refs=3 / limit-modes / me=2 / subme=4 / merange=57 / temporal-mvp / no-frame-dup / no-hme / weightp / no-weightb / no-analyze-src-pics / deblock=-1:-1 / no-sao / no-sao-non-deblock / rd=4 / selective-sao=0 / no-early-skip / rskip / rskip-edge-threshold=0.050000 / no-fast-intra / no-tskip-fast / no-cu-lossless / no-b-intra / no-splitrd-skip / rdpenalty=0 / psy-rd=2.00 / psy-rdoq=1.00 / no-rd-refine / no-lossless / cbqpoffs=0 / crqpoffs=0 / rc=crf / crf=22.0 / qcomp=0.70 / qpstep=4 / stats-write=0 / stats-read=0 / vbv-maxrate=30001 / vbv-bufsize=20000 / vbv-init=0.9 / min-vbv-fullness=50.0 / max-vbv-fullness=80.0 / crf-max=0.0 / crf-min=0.0 / ipratio=1.40 / pbratio=1.30 / aq-mode=2 / aq-strength=0.80 / no-cutree / zone-count=0 / no-strict-cbr / qg-size=32 / no-rc-grain / qpmax=69 / qpmin=0 / no-const-vbv / sar=1 / overscan=0 / videoformat=5 / range=0 / colorprim=9 / transfer=16 / colormatrix=9 / chromaloc=1 / chromaloc-top=2 / chromaloc-bottom=2 / display-window=0 / master-display=G(13250,34500)B(7500,3000)R(34000,16000)WP(15635,16450)L(10000000,500) / cll=600,200 / min-luma=0 / max-luma=1023 / log2-max-poc-lsb=8 / vui-timing-info / vui-hrd-info / slices=1 / no-opt-qp-pps / no-opt-ref-list-length-pps / no-multi-pass-opt-rps / scenecut-bias=0.05 / no-opt-cu-delta-qp / no-aq-motion / hdr10 / no-hdr10-opt / no-dhdr10-opt / no-idr-recovery-sei / analysis-reuse-level=0 / analysis-save-reuse-level=0 / analysis-load-reuse-level=0 / scale-factor=0 / refine-intra=0 / refine-inter=0 / refine-mv=1 / refine-ctu-distortion=0 / no-limit-sao / ctu-info=0 / no-lowpass-dct / refine-analysis-type=0 / copy-pic=1 / max-ausize-factor=1.0 / no-dynamic-refine / no-single-sei / no-hevc-aq / no-svt / no-field / qp-adaptation-range=1.00 / scenecut-aware-qp=0conformance-window-offsets / right=0 / bottom=0 / decoder-max-rate=0 / no-vbv-live-multi-pass / no-mcstf / no-sbrc
Language                    : English
Default                     : No
Forced                      : No
Color range                 : Limited
Color primaries             : BT.2020
Transfer characteristics    : PQ
Matrix coefficients         : BT.2020 non-constant
Mastering display color pri : Display P3
Mastering display luminance : min: 0.0500 cd/m2, max: 1000 cd/m2
Maximum Content Light Level : 600 cd/m2
Maximum Frame-Average Light : 200 cd/m2
Original source medium      : Blu-ray
Audio #1
ID                          : 2
ID in the original source m : 4352 (0x1100)
Format                      : MLP FBA 16-ch
Format/Info                 : Meridian Lossless Packing FBA with 16-channel presentation
Commercial name             : Dolby TrueHD with Dolby Atmos
Codec ID                    : A_TRUEHD
Duration                    : 1 h 43 min
Bit rate mode               : Variable
Bit rate                    : 4 499 kb/s
Maximum bit rate            : 7 071 kb/s
Channel(s)                  : 8 channels
Channel layout              : L R C LFE Ls Rs Lb Rb
Sampling rate               : 48.0 kHz
Frame rate                  : 1 200.000 FPS (40 SPF)
Bit depth                   : 24 bits
Compression mode            : Lossless
Stream size                 : 3.25 GiB (16%)
Title                       : 环绕声 7.1
Language                    : English
Default                     : Yes
Forced                      : No
Original source medium      : Blu-ray
Number of dynamic objects   : 11
Bed channel count           : 1 channel
Bed channel configuration   : LFE
Audio #2
ID                          : 3
ID in the original source m : 4352 (0x1100)
Format                      : AC-3
Format/Info                 : Audio Coding 3
Commercial name             : Dolby Digital
Codec ID                    : A_AC3
Duration                    : 1 h 43 min
Bit rate mode               : Constant
Bit rate                    : 640 kb/s
Channel(s)                  : 6 channels
Channel layout              : L R C LFE Ls Rs
Sampling rate               : 48.0 kHz
Frame rate                  : 31.250 FPS (1536 SPF)
Compression mode            : Lossy
Stream size                 : 474 MiB (2%)
Title                       : 环绕声 5.1
Language                    : English
Service kind                : Complete Main
Default                     : No
Forced                      : No
Original source medium      : Blu-ray
Audio #3
ID                          : 4
ID in the original source m : 4353 (0x1101)
Format                      : AC-3
Format/Info                 : Audio Coding 3
Commercial name             : Dolby Digital
Codec ID                    : A_AC3
Duration                    : 1 h 43 min
Bit rate mode               : Constant
Bit rate                    : 192 kb/s
Channel(s)                  : 2 channels
Channel layout              : L R
Sampling rate               : 48.0 kHz
Frame rate                  : 31.250 FPS (1536 SPF)
Compression mode            : Lossy
Stream size                 : 142 MiB (1%)
Title                       : 立体声
Language                    : English
Service kind                : Complete Main
Default                     : No
Forced                      : No
Original source medium      : Blu-ray
Audio #4
ID                          : 5
ID in the original source m : 4354 (0x1102)
Format                      : AC-3
Format/Info                 : Audio Coding 3
Commercial name             : Dolby Digital
Codec ID                    : A_AC3
Duration                    : 1 h 43 min
Bit rate mode               : Constant
Bit rate                    : 640 kb/s
Channel(s)                  : 6 channels
Channel layout              : L R C LFE Ls Rs
Sampling rate               : 48.0 kHz
Frame rate                  : 31.250 FPS (1536 SPF)
Compression mode            : Lossy
Stream size                 : 474 MiB (2%)
Title                       : 环绕声 5.1
Language                    : French
Service kind                : Complete Main
Default                     : No
Forced                      : No
Original source medium      : Blu-ray
Audio #5
ID                          : 6
ID in the original source m : 4355 (0x1103)
Format                      : AC-3
Format/Info                 : Audio Coding 3
Commercial name             : Dolby Digital
Codec ID                    : A_AC3
Duration                    : 1 h 43 min
Bit rate mode               : Constant
Bit rate                    : 640 kb/s
Channel(s)                  : 6 channels
Channel layout              : L R C LFE Ls Rs
Sampling rate               : 48.0 kHz
Frame rate                  : 31.250 FPS (1536 SPF)
Compression mode            : Lossy
Stream size                 : 474 MiB (2%)
Title                       : 环绕声 5.1
Language                    : Spanish
Service kind                : Complete Main
Default                     : No
Forced                      : No
Original source medium      : Blu-ray
Audio #6
ID                          : 7
ID in the original source m : 4356 (0x1104)
Format                      : AC-3
Format/Info                 : Audio Coding 3
Commercial name             : Dolby Digital
Codec ID                    : A_AC3
Duration                    : 1 h 43 min
Bit rate mode               : Constant
Bit rate                    : 192 kb/s
Channel(s)                  : 2 channels
Channel layout              : L R
Sampling rate               : 48.0 kHz
Frame rate                  : 31.250 FPS (1536 SPF)
Compression mode            : Lossy
Stream size                 : 142 MiB (1%)
Title                       : 立体声
Language                    : English
Service kind                : Complete Main
Default                     : No
Forced                      : No
Original source medium      : Blu-ray
Text #1
ID                          : 8
ID in the original source m : 4768 (0x12A0)
Format                      : PGS
Muxing mode                 : zlib
Codec ID                    : S_HDMV/PGS
Codec ID/Info               : Picture based subtitle format used on BDs/HD-DVDs
Duration                    : 1 h 42 min
Bit rate                    : 32.6 kb/s
Frame rate                  : 0.429 FPS
Count of elements           : 2644
Stream size                 : 24.0 MiB (0%)
Language                    : English
Default                     : No
Forced                      : No
Original source medium      : Blu-ray
Text #2
ID                          : 9
ID in the original source m : 4769 (0x12A1)
Format                      : PGS
Muxing mode                 : zlib
Codec ID                    : S_HDMV/PGS
Codec ID/Info               : Picture based subtitle format used on BDs/HD-DVDs
Duration                    : 1 h 34 min
Bit rate                    : 27.5 kb/s
Frame rate                  : 0.351 FPS
Count of elements           : 1980
Stream size                 : 18.5 MiB (0%)
Language                    : French
Default                     : No
Forced                      : No
Original source medium      : Blu-ray
Text #3
ID                          : 10
ID in the original source m : 4769 (0x12A1)
Format                      : PGS
Muxing mode                 : zlib
Codec ID                    : S_HDMV/PGS
Codec ID/Info               : Picture based subtitle format used on BDs/HD-DVDs
Duration                    : 1 h 34 min
Bit rate                    : 598 b/s
Frame rate                  : 0.009 FPS
Count of elements           : 48
Stream size                 : 412 KiB (0%)
Language                    : French
Default                     : No
Forced                      : No
Original source medium      : Blu-ray
Text #4
ID                          : 11
ID in the original source m : 4770 (0x12A2)
Format                      : PGS
Muxing mode                 : zlib
Codec ID                    : S_HDMV/PGS
Codec ID/Info               : Picture based subtitle format used on BDs/HD-DVDs
Duration                    : 1 h 42 min
Bit rate                    : 27.0 kb/s
Frame rate                  : 0.341 FPS
Count of elements           : 2102
Stream size                 : 19.8 MiB (0%)
Language                    : Spanish
Default                     : No
Forced                      : No
Original source medium      : Blu-ray
Text #5
ID                          : 12
ID in the original source m : 4770 (0x12A2)
Format                      : PGS
Muxing mode                 : zlib
Codec ID                    : S_HDMV/PGS
Codec ID/Info               : Picture based subtitle format used on BDs/HD-DVDs
Duration                    : 1 h 42 min
Bit rate                    : 397 b/s
Frame rate                  : 0.007 FPS
Count of elements           : 42
Stream size                 : 297 KiB (0%)
Language                    : Spanish
Default                     : No
Forced                      : No
Original source medium      : Blu-ray
Text #6
ID                          : 13
ID in the original source m : 4771 (0x12A3)
Format                      : PGS
Muxing mode                 : zlib
Codec ID                    : S_HDMV/PGS
Codec ID/Info               : Picture based subtitle format used on BDs/HD-DVDs
Duration                    : 1 h 33 min
Bit rate                    : 31.1 kb/s
Frame rate                  : 0.351 FPS
Count of elements           : 1973
Stream size                 : 20.8 MiB (0%)
Language                    : Chinese
Default                     : No
Forced                      : No
Original source medium      : Blu-ray
Text #7
ID                          : 14
ID in the original source m : 4772 (0x12A4)
Format                      : PGS
Muxing mode                 : zlib
Codec ID                    : S_HDMV/PGS
Codec ID/Info               : Picture based subtitle format used on BDs/HD-DVDs
Duration                    : 1 h 33 min
Bit rate                    : 31.8 kb/s
Frame rate                  : 0.351 FPS
Count of elements           : 1973
Stream size                 : 21.3 MiB (0%)
Language                    : Chinese
Default                     : No
Forced                      : No
Original source medium      : Blu-ray
Text #8
ID                          : 15
ID in the original source m : 4773 (0x12A5)
Format                      : PGS
Muxing mode                 : zlib
Codec ID                    : S_HDMV/PGS
Codec ID/Info               : Picture based subtitle format used on BDs/HD-DVDs
Duration                    : 1 h 33 min
Bit rate                    : 50.2 kb/s
Frame rate                  : 0.351 FPS
Count of elements           : 1973
Stream size                 : 33.6 MiB (0%)
Language                    : Chinese
Default                     : No
Forced                      : No
Original source medium      : Blu-ray
Text #9
ID                          : 16
ID in the original source m : 4774 (0x12A6)
Format                      : PGS
Muxing mode                 : zlib
Codec ID                    : S_HDMV/PGS
Codec ID/Info               : Picture based subtitle format used on BDs/HD-DVDs
Duration                    : 1 h 33 min
Bit rate                    : 50.9 kb/s
Frame rate                  : 0.351 FPS
Count of elements           : 1973
Stream size                 : 34.1 MiB (0%)
Language                    : Chinese
Default                     : No
Forced                      : No
Original source medium      : Blu-ray
Menu
00:00:00.000                : en:Chapter 01
00:06:06.574                : en:Chapter 02
00:10:57.698                : en:Chapter 03
00:15:56.622                : en:Chapter 04
00:23:44.798                : en:Chapter 05
00:28:35.672                : en:Chapter 06
00:34:39.952                : en:Chapter 07
00:40:43.482                : en:Chapter 08
00:46:45.093                : en:Chapter 09
00:50:27.190                : en:Chapter 10
00:56:32.931                : en:Chapter 11
01:00:41.679                : en:Chapter 12
01:07:44.727                : en:Chapter 13
01:15:16.053                : en:Chapter 14
01:23:17.283                : en:Chapter 15
01:30:56.868                : en:Chapter 16

视频截图

留下评论