[2023日本喜剧]パリピ孔明 派对浪客孔明[全10集][中文字幕][WEB-MKV-1080P]

%title插图%num

◎标  题 派对浪客孔明
◎译  名 派对浪客诸葛孔明
◎片  名 パリピ孔明
◎年  代 2023
◎产  地 日本
◎类  别 喜剧
◎语  言 日语
◎IMDb链接 https://www.imdb.com/title/tt27666516/
◎豆瓣评分 6.3/10 (457人评价)
◎豆瓣链接 https://movie.douban.com/subject/36392399/
◎导  演 渋江修平 Shuhei Shibue
◎编  剧 根本非翟 Nemoto Nonji
◎演  员 向井理 Osamu Mukai
      上白石萌歌 Moka Kamishiraishi
      森山未来 Mirai Moriyama
      菅原小春 Koharu Sugawara
      宫世琉弥 Ryubi MiyaseI
      八木莉可子 Rikako Yagi
      关口Mandy Mandy Sekiguchi
      蔷薇园啊呜 Avu-chan
      藤冈靛 Tatsuo Dean Fujioka
      村田凪 Nagi Murata
      村杉蝉之介 Seminosuke Murasugi
      森崎温 Win Morisaki
      岛田久作 Kyûsaku Shimada
      今井隆文 Takafumi Imai
      本间朋晃 Tomoaki Honma
      真壁伸也 Togi Makabe

◎简  介
    改编自同名漫画,讲述三国时期的著名军事家诸葛孔明,以青春的容貌重生在现代涩谷,带领一个立志成为歌手的少女走向成功。

视频信息

General
Unique ID                   : 150070421157169655723798147112863801453 (0x70E683047EBE70A9AB9879C9308C206D)
Complete name               : \2.168.1.108\downloads\【高清剧集网发布 www.DDHDTV.com】派对浪客孔明[全10集][中文字幕].Paripi.Komei.S01.2023.1080p.WEB-DL.H264.AAC-DDHDTV\Paripi.Komei.S01E01.2023.1080p.WEB-DL.H264.AAC-DDHDTV.mkv
Format                      : Matroska
Format version              : Version 4
File size                   : 3.09 GiB
Duration                    : 55 min 46 s
Overall bit rate            : 7 936 kb/s
Frame rate                  : 29.970 FPS
Encoded date                : 2023-09-28 04:34:29 UTC
Writing application         : mkvmerge v71.1.0 ('Fortitude') 64-bit
Writing library             : libebml v1.4.4 + libmatroska v1.7.1
Muxer                       : ADWeb

Video
ID                          : 1
Format                      : AVC
Format/Info                 : Advanced Video Codec
Format profile              : High@L4.1
Format settings             : CABAC / 1 Ref Frames
Format settings, CABAC      : Yes
Format settings, Reference  : 1 frame
Format settings, GOP        : M=1, N=60
Codec ID                    : V_MPEG4/ISO/AVC
Duration                    : 55 min 46 s
Bit rate mode               : Constant
Bit rate                    : 8 000 kb/s
Width                       : 1 920 pixels
Height                      : 1 080 pixels
Display aspect ratio        : 16:9
Frame rate mode             : Constant
Frame rate                  : 29.970 (30000/1001) FPS
Color space                 : YUV
Chroma subsampling          : 4:2:0
Bit depth                   : 8 bits
Scan type                   : Progressive
Bits/(Pixel*Frame)          : 0.129
Stream size                 : 3.04 GiB (98%)
Language                    : Japanese
Default                     : Yes
Forced                      : No

Audio
ID                          : 2
Format                      : AAC LC
Format/Info                 : Advanced Audio Codec Low Complexity
Codec ID                    : A_AAC-2
Duration                    : 55 min 46 s
Bit rate                    : 125 kb/s
Channel(s)                  : 2 channels
Channel layout              : L R
Sampling rate               : 48.0 kHz
Frame rate                  : 46.875 FPS (1024 SPF)
Compression mode            : Lossy
Stream size                 : 50.0 MiB (2%)
Language                    : Japanese
Default                     : Yes
Forced                      : No

Text #1
ID                          : 3
Format                      : UTF-8
Codec ID                    : S_TEXT/UTF8
Codec ID/Info               : UTF-8 Plain Text
Duration                    : 55 min 44 s
Bit rate                    : 55 b/s
Frame rate                  : 0.277 FPS
Count of elements           : 927
Stream size                 : 22.6 KiB (0%)
Title                       : Chinese Simplified
Language                    : Chinese (Simplified)
Default                     : Yes
Forced                      : No

Text #2
ID                          : 4
Format                      : UTF-8
Codec ID                    : S_TEXT/UTF8
Codec ID/Info               : UTF-8 Plain Text
Duration                    : 55 min 44 s
Bit rate                    : 55 b/s
Frame rate                  : 0.277 FPS
Count of elements           : 927
Stream size                 : 22.6 KiB (0%)
Title                       : Chinese Traditional
Language                    : Chinese (Traditional)
Default                     : No
Forced                      : No

视频截图

留下评论