[2023日本动画]名探偵コナン 黒鉄の魚影 名侦探柯南:黑铁的鱼影[中文字幕][BD-MKV-1080P]

%title插图%num

◎标  题 名侦探柯南:黑铁的鱼影
◎译  名 名侦探柯南剧场版26 / 黒鉄の魚影 / Detective Conan: Black Iron Submarine
◎片  名 名探偵コナン 黒鉄の魚影
◎年  代 2023
◎产  地 日本
◎类  别 动画
◎语  言 日语
◎上映日期 2023-12-16(中国大陆) / 2023-04-14(日本)
◎IMDb评分 7.5/10 (1189人评价)
◎IMDb链接 https://www.imdb.com/title/tt27521477/
◎豆瓣评分 6.9/10 (9564人评价)
◎豆瓣链接 https://movie.douban.com/subject/35873969/
◎片  长 110分钟
◎导  演 立川让 Yuzuru Tachikawa
◎编  剧 樱井武晴 Takahiro Sakurai
      青山刚昌 Gôshô Aoyama
◎演  员 高山南 Minami Takayama
      林原惠美 Megumi Hayashibara
      山崎和佳奈 Wakana Yamazaki
      小山力也 Rikiya Koyama
      山口胜平 Kappei Yamaguchi
      古谷彻 Tôru Furuya
      池田秀一 Shûichi Ikeda
      置鲇龙太郎 Ryôtarô Okiayu
      三石琴乃 Kotono Mitsuishi
      岸野幸正 Kishino Yukimasa
      一城美由希 Ichijou Miyuki
      土师孝也 Takaya Hashi
      乃村健次 Kenji Nomura
      飞田展男 Nobuo Tobita
      绪方贤一 Kenichi Ogata
      松井菜樱子 Naoko Matsui
      岩居由希子 Yukiko Iwai
      大谷育江 Ikue Ootani
      茶风林 Chafûrin
      汤屋敦子 Atsuko Yuya
      井上和彦 Kazuhiko Inoue
      千叶繁 Shigeru Chiba
      堀之纪 Yukitoshi Hori
      立木文彦 Fumihiko Tachiki
      小山茉美 Mami Koyama
      井上喜久子 Kikuko Inoue
      木下浩之 Hiroyuki Kinosha
      玉川纱己子 Sakiko Tamagawa
      种崎敦美 Atsumi Tanezaki
      诹访部顺一 Junichi Suwabe
      神谷浩史 Hiroshi Kamiya
      土田大 Hiroshi Tsuchida
      泽木郁也 Ikuya Sawaki
      宫原永海 Nami Miyahara
      村濑步 Ayumu Murase
      泽田敏子 Toshiko Sawada
      鸟海胜美 Toriumi Katsumi
      藤原泰浩 Yasuhiro
      金光宣明 Kanemitsu Nobuaki
      冈井克升 Okai Katsunori
      下地紫野 Shino Shimoji
      泽村一树 Ikki Sawamura
      平野文 Fumi Hirano
      古川慎 Makoto Furukawa
      梁田清之 Kiyoyuki Yanada
      高木涉 Wataru Takagi
      关根明良 Akira Sekine
      小野大辅 Daisuke Ono

◎简  介

  故事发生在东京八丈岛近海,一座将全球各地警方监控相连接的高科技设施——“太平洋浮标”即将启动。为了与欧洲刑警组织管辖的范围联网,来自世界各地的工程师聚集在这里。基于人脸识别的全新“黑科技”也正在测试中……
  与此同时,柯南一行人前往八丈岛观鲸,途中柯南接到冲矢昴(赤井秀一)的电话,被告知欧洲刑警组织成员在德国遭到琴酒的杀害。为调查真相的柯南潜入“太平洋浮标”。正当工程师们正在为系统启动而展开准备工作时,一桩案件突然发生!一名女工程师被黑暗组织绑架,她手中存有核心技术的U盘也落入了黑暗组织手中!
  此时,水下传来未知潜水艇逼近的声音,令人毛骨悚然,一个神秘的黑影也正在悄悄接近灰原哀……

视频信息

General
Unique ID                   : 184925023343635967037571654912078288903 (0x8B1F4395018BBDBF960C8537335C9807)
Complete name               : \2.168.1.108\downloads\【高清影视之家发布 www.HDBTHD.com】名侦探柯南:黑铁的鱼影[中文字幕].Detective.Conan.2023.1080p.BluRay.x265.10bit.FLAC.5.1-SONYHD\Detective.Conan.Black.Iron.Submarine.2023.1080p.BluRay.x265.10bit.FLAC.5.1-SONYHD.mkv
Format                      : Matroska
Format version              : Version 4
File size                   : 4.78 GiB
Duration                    : 1 h 49 min
Overall bit rate mode       : Variable
Overall bit rate            : 6 239 kb/s
Frame rate                  : 23.976 FPS
Movie name                  : Ming 2023
Encoded date                : 2023-11-30 14:17:39 UTC
Writing application         : mkvmerge v78.0 ('Running') 64-bit
Writing library             : libebml v1.4.4 + libmatroska v1.7.1
Cover                       : Yes
Attachments                 : cover.jpg

Video
ID                          : 1
Format                      : HEVC
Format/Info                 : High Efficiency Video Coding
Format profile              : Main 10@L5@Main
Codec ID                    : V_MPEGH/ISO/HEVC
Duration                    : 1 h 49 min
Bit rate                    : 4 714 kb/s
Width                       : 1 920 pixels
Height                      : 1 080 pixels
Display aspect ratio        : 16:9
Frame rate mode             : Constant
Frame rate                  : 23.976 (24000/1001) FPS
Color space                 : YUV
Chroma subsampling          : 4:2:0
Bit depth                   : 10 bits
Bits/(Pixel*Frame)          : 0.095
Stream size                 : 3.61 GiB (76%)
Writing library             : x265 3.5+2-g2b25c9ba0+45:[Windows][GCC 10.2.0][64 bit] Yuuki 10bit+8bit+12bit
Encoding settings           : rc=crf / crf=13.3200 / qcomp=0.60 / qpstep=4 / stats-write=0 / stats-read=0 / no-lossless / no-cu-lossless / aq-mode=3 / aq-strength=0.60 / cbqpoffs=0 / crqpoffs=0 / ipratio=1.20 / pbratio=1.10 / psy-rd=1.00 / psy-rdoq=0.00 / deblock=0:0 / ref=6 / limit-refs=1 / no-limit-modes / bframes=8 / b-adapt=2 / bframe-bias=0 / b-pyramid / b-intra / weightp / weightb / min-keyint=24 / max-keyint=240 / rc-lookahead=24 / gop-lookahead=0 / scenecut=40 / hist-scenecut=0 / radl=0 / max-cu-size=64 / min-cu-size=8 / me=3 / subme=7 / merange=48 / rdoq-level=0 / rd=4 / rdpenalty=0 / dynamic-rd=0.00 / no-rd-refine / ----- / cutree / sao / no-rect / no-amp / no-open-gop / wpp / no-pmode / no-pme / no-psnr / no-ssim / nr-intra=0 / nr-inter=0 / no-constrained-intra / no-strong-intra-smoothing / max-tu-size=32 / tu-inter-depth=1 / tu-intra-depth=1 / limit-tu=0 / qg-size=32 / qpmax=69 / qpmin=0 / ----- / cpuid=1111039 / frame-threads=5 / numa-pools=+ / log-level=2 / input-csp=1 / input-res=1920x1080 / interlace=0 / level-idc=0 / high-tier=1 / uhd-bd=0 / no-allow-non-conformance / repeat-headers / aud / no-hrd / info / hash=0 / no-temporal-layers / lookahead-slices=0 / no-splice / no-intra-refresh / no-ssim-rd / signhide / no-tskip / max-merge=3 / temporal-mvp / no-frame-dup / no-hme / no-analyze-src-pics / no-sao-non-deblock / selective-sao=4 / early-skip / rskip / no-fast-intra / no-tskip-fast / no-splitrd-skip / zone-count=0 / no-strict-cbr / no-rc-grain / no-const-vbv / sar=0 / overscan=0 / videoformat=5 / range=0 / colorprim=2 / transfer=2 / colormatrix=2 / chromaloc=0 / display-window=0 / cll=0,0 / min-luma=0 / max-luma=1023 / log2-max-poc-lsb=8 / vui-timing-info / vui-hrd-info / slices=1 / no-opt-qp-pps / no-opt-ref-list-length-pps / no-multi-pass-opt-rps / scenecut-bias=0.05 / hist-threshold=0.03 / no-opt-cu-delta-qp / no-aq-motion / no-hdr10 / no-hdr10-opt / no-dhdr10-opt / no-idr-recovery-sei / analysis-reuse-level=0 / analysis-save-reuse-level=0 / analysis-load-reuse-level=0 / scale-factor=0 / refine-intra=0 / refine-inter=0 / refine-mv=1 / refine-ctu-distortion=0 / no-limit-sao / ctu-info=0 / no-lowpass-dct / refine-analysis-type=0 / copy-pic=1 / max-ausize-factor=1.0 / no-dynamic-refine / no-single-sei / no-hevc-aq / no-svt / no-field / qp-adaptation-range=1.00 / scenecut-aware-qp=0conformance-window-offsets / right=0 / bottom=0 / decoder-max-rate=0 / no-vbv-live-multi-pass
Default                     : Yes
Forced                      : No

Audio
ID                          : 2
Format                      : FLAC
Format/Info                 : Free Lossless Audio Codec
Codec ID                    : A_FLAC
Duration                    : 1 h 49 min
Bit rate mode               : Variable
Bit rate                    : 1 335 kb/s
Channel(s)                  : 6 channels
Channel layout              : L R C LFE Ls Rs
Sampling rate               : 48.0 kHz
Frame rate                  : 11.719 FPS (4096 SPF)
Bit depth                   : 16 bits
Compression mode            : Lossless
Stream size                 : 1.02 GiB (21%)
Title                       : Japanese
Writing library             : libFLAC 1.2.1 (2007-09-17)
Language                    : Japanese
Default                     : Yes
Forced                      : No
MD5 of the unencoded conten : 6249C66C2D93585531E4FCC36613D1DE

Text #1
ID                          : 3
Format                      : PGS
Muxing mode                 : zlib
Codec ID                    : S_HDMV/PGS
Codec ID/Info               : Picture based subtitle format used on BDs/HD-DVDs
Duration                    : 1 h 49 min
Bit rate                    : 78.4 kb/s
Frame rate                  : 0.664 FPS
Count of elements           : 4352
Stream size                 : 61.2 MiB (1%)
Title                       : chs
Language                    : Chinese (Simplified)
Default                     : Yes
Forced                      : No

Text #2
ID                          : 4
Format                      : PGS
Muxing mode                 : zlib
Codec ID                    : S_HDMV/PGS
Codec ID/Info               : Picture based subtitle format used on BDs/HD-DVDs
Duration                    : 1 h 49 min
Bit rate                    : 80.1 kb/s
Frame rate                  : 0.664 FPS
Count of elements           : 4352
Stream size                 : 62.5 MiB (1%)
Title                       : cht
Language                    : Chinese (Traditional)
Default                     : No
Forced                      : No

Text #3
ID                          : 5
ID in the original source m : 4608 (0x1200)
Format                      : PGS
Muxing mode                 : zlib
Codec ID                    : S_HDMV/PGS
Codec ID/Info               : Picture based subtitle format used on BDs/HD-DVDs
Duration                    : 1 h 49 min
Bit rate                    : 254 kb/s
Frame rate                  : 1.463 FPS
Count of elements           : 9593
Stream size                 : 198 MiB (4%)
Title                       : jpn
Language                    : Japanese
Default                     : No
Forced                      : No
Original source medium      : Blu-ray

Menu
00:00:00.000                : en:Chapter 01
00:01:56.533                : en:Chapter 02
00:08:18.206                : en:Chapter 03
00:11:08.250                : en:Chapter 04
00:18:35.906                : en:Chapter 05
00:24:09.990                : en:Chapter 06
00:31:08.741                : en:Chapter 07
00:35:17.448                : en:Chapter 08
00:46:07.598                : en:Chapter 09
00:49:49.653                : en:Chapter 10
00:56:20.460                : en:Chapter 11
01:04:23.860                : en:Chapter 12
01:12:38.062                : en:Chapter 13
01:17:48.955                : en:Chapter 14
01:25:54.315                : en:Chapter 15
01:30:58.911                : en:Chapter 16
01:34:49.517                : en:Chapter 17
01:37:57.580                : en:Chapter 18
01:42:25.139                : en:Chapter 19
01:49:22.556                : en:Chapter 20

视频截图

留下评论