[2023大陆喜剧]好像也没那么热血沸腾[国语音轨/中文字幕][WEB-MP4-2160P(4K)]

%title插图%num

◎标  题 好像也没那么热血沸腾
◎译  名 热血沸腾 / 篮球冠军 中国版 / Lose to Win / Champion
◎年  代 2023
◎产  地 中国大陆
◎类  别 喜剧 / 运动
◎语  言 汉语普通话
◎上映日期 2023-09-28(中国大陆)
◎IMDb评分 7.4/10 (27人评价)
◎IMDb链接 https://www.imdb.com/title/tt28355533/
◎豆瓣评分 7.1/10 (31210人评价)
◎豆瓣链接 https://movie.douban.com/subject/35882742/
◎片  长 134分钟
◎导  演 高虎 Hu Gao
◎编  剧 邢文雄 Wenxiong Xing
◎演  员 魏翔 Xiang Wei
      王智 Zhi Wang
      岳亮 Liang Yue
      艾伦 Allen
      王子异 Boogie Wang
      周大勇 Dayong Zhou
      韩笑 Xiao Han
      建康 Kang Jian
      刘沐琪 Muqi Liu
      刘斯博 Sibo Liu
      刘雪涛 Xuetao Liu
      于白水 Baishui Yu
      张恒瑞 Hengrui Zhang
      于洋 Yang Yu
      马旭东 Xudong Ma
      大力 Dali Hou
      张芝华 Zhihua Zhang

◎简  介

  对胜利无比执着的篮球教练魏国铮(魏翔 饰),因违规受罚被迫进入一所特殊的学校支教。当奉行“打球就是为了赢”的自负教练,遇上一群热爱篮球但“能力值为负”的球员,在鸡同鸭讲式的日常相处和不停陷入中断的篮球训练中,濒临崩溃的魏教练会有奇招延续自己的不败神话吗?他们又能否一起负负得正,在即将到来的联赛上一路高歌猛进、披荆斩棘、勇夺冠军?
  影片改编自西班牙电影《篮球冠军》。

视频信息

General
Complete name               : \2.168.1.108\downloads\『 不太灵影视站 www.butailing.com 』好像也没那么热血沸腾[60帧率版本][国语配音+中文字幕].Champion.2023.2160p.60fps.WEB-DL.HEVC.10bit.DDP5.1.3Audios-NukeHD\[好像也没那么热血沸腾].Champion.2023.2160p.60fps.WEB-DL.HEVC.10bit.DDP5.1.3Audios-NukeHD.mp4
Format                      : MPEG-4
Format profile              : Base Media
Codec ID                    : isom (isom/dby1/iso2/mp41)
File size                   : 5.16 GiB
Duration                    : 2 h 14 min
Overall bit rate            : 5 507 kb/s
Frame rate                  : 60.000 FPS
Writing application         : Lavf60.9.100
Copyright                   : HD Dolby
Cover                       : Yes
Comment                     : Produced by QHstudIo

Video
ID                          : 1
Format                      : HEVC
Format/Info                 : High Efficiency Video Coding
Format profile              : Main 10@L5.1@Main
Codec ID                    : hev1
Codec ID/Info               : High Efficiency Video Coding
Duration                    : 2 h 14 min
Bit rate                    : 4 781 kb/s
Width                       : 3 840 pixels
Height                      : 1 608 pixels
Display aspect ratio        : 2.39:1
Frame rate mode             : Variable
Frame rate                  : 60.000 FPS
Minimum frame rate          : 59.960 FPS
Maximum frame rate          : 60.040 FPS
Color space                 : YUV
Chroma subsampling          : 4:2:0
Bit depth                   : 10 bits
Bits/(Pixel*Frame)          : 0.013
Stream size                 : 4.48 GiB (87%)
Color range                 : Limited
Color primaries             : BT.709
Transfer characteristics    : BT.709
Matrix coefficients         : BT.709
Codec configuration box     : hvcC

Audio #1
ID                          : 2
Format                      : E-AC-3
Format/Info                 : Enhanced AC-3
Commercial name             : Dolby Digital Plus
Codec ID                    : ec-3
Duration                    : 2 h 14 min
Bit rate mode               : Constant
Bit rate                    : 256 kb/s
Channel(s)                  : 6 channels
Channel layout              : L R C LFE Ls Rs
Sampling rate               : 48.0 kHz
Frame rate                  : 31.250 FPS (1536 SPF)
Compression mode            : Lossy
Stream size                 : 246 MiB (5%)
Title                       : DDP5.1,国语
Language                    : Chinese
Service kind                : Complete Main
Default                     : Yes
Alternate group             : 1

Audio #2
ID                          : 3
Format                      : AAC LC
Format/Info                 : Advanced Audio Codec Low Complexity
Codec ID                    : mp4a-40-2
Duration                    : 2 h 14 min
Bit rate mode               : Constant
Bit rate                    : 256 kb/s
Channel(s)                  : 6 channels
Channel layout              : C L R Ls Rs LFE
Sampling rate               : 44.1 kHz
Frame rate                  : 43.066 FPS (1024 SPF)
Compression mode            : Lossy
Stream size                 : 246 MiB (5%)
Title                       : AAC5.1,国语
Language                    : Chinese
Default                     : Yes
Alternate group             : 2

Audio #3
ID                          : 4
Format                      : AAC LC
Format/Info                 : Advanced Audio Codec Low Complexity
Codec ID                    : mp4a-40-2
Duration                    : 2 h 14 min
Bit rate mode               : Constant
Bit rate                    : 192 kb/s
Channel(s)                  : 2 channels
Channel layout              : L R
Sampling rate               : 44.1 kHz
Frame rate                  : 43.066 FPS (1024 SPF)
Compression mode            : Lossy
Stream size                 : 184 MiB (3%)
Title                       : AAC2.0,国语
Language                    : Chinese
Default                     : Yes
Alternate group             : 3

视频截图

留下评论