[2023大陆喜剧]前任4:英年早婚[国语配音/中文字幕][WEB-MP4-2160P(4K)]

%title插图%num

◎标  题 前任4:英年早婚
◎译  名 前任4 / 分手清单 / 前任:分手清单 / 前任攻略4
◎年  代 2023
◎产  地 中国大陆
◎类  别 喜剧 / 爱情
◎语  言 汉语普通话
◎上映日期 2023-09-28(中国大陆)
◎IMDb评分 5.7/10 (71人评价)
◎IMDb链接 https://www.imdb.com/title/tt26911640/
◎豆瓣评分 5.9/10 (72484人评价)
◎豆瓣链接 https://movie.douban.com/subject/35358443/
◎片  长 129分钟
◎导  演 田羽生 Yusheng Tian
◎编  剧 大宽 Da Kuan
      大广 Da Guang
      田羽生 Yusheng Tian
◎演  员 韩庚 Han geng
      郑恺 Kai Zheng
      于文文 Kelly Yu
      刘雅瑟 Yase Liu
      曾梦雪 Mengxue Zeng
      张天爱 Tian’ai Zhang
      朱颜曼滋 Yanmanzi Zhu
      罗米 Mi Luo
      冯铭潮 Mingchao Feng
      药一樍 Yize Yao
      于惠 Hui Yu
      苗艺博 Yibo Miao
      田羽生 Yusheng Tian
      张栾 Luan Zhang
      徐心瑭 Rhea

◎简  介
    孟云(韩庚 饰)和余飞(郑恺 饰)这对难兄难弟,在历经情场的洗礼之后,终于来到了谈婚论嫁的年纪。正在经历“分手后遗症”的孟云,面对家人的催促,带着“为什么要结婚”的疑问,开始寻找真爱;而余飞和女友丁点(曾梦雪 饰)为了应对结婚后即将产生的各种情况,自创了“结婚冷静期”,将婚后生活提前预演。两兄弟开启一场全新的爱情挑战……

视频信息

General
Complete name               : \2.168.1.108\downloads\【高清影视之家发布 www.HDBTHD.com】前任4:英年早婚[国语音轨+中文字幕].The.Ex-Files.4.Marriage.Plan.2023.1080p.WEB-DL.H264.AAC-GPTHD\前任4.英年早婚.The.Ex-Files.4.Marriage.Plan.2023.1080p.WEB-DL.H264.AAC-GPTHD.mp4
Format                      : MPEG-4
Format profile              : Base Media
Codec ID                    : isom (isom/iso2/avc1/mp41)
File size                   : 6.41 GiB
Duration                    : 2 h 8 min
Overall bit rate mode       : Variable
Overall bit rate            : 7 134 kb/s
Frame rate                  : 25.000 FPS
Writing application         : OurTV Multimedia Platform

Video
ID                          : 1
Format                      : AVC
Format/Info                 : Advanced Video Codec
Format profile              : Progressive High@L4
Format settings             : CABAC / 3 Ref Frames
Format settings, CABAC      : Yes
Format settings, Reference  : 3 frames
Format settings, GOP        : M=3, N=50
Codec ID                    : avc1
Codec ID/Info               : Advanced Video Coding
Duration                    : 2 h 8 min
Source duration             : 2 h 8 min
Bit rate mode               : Constant
Bit rate                    : 7 001 kb/s
Width                       : 1 920 pixels
Height                      : 1 080 pixels
Display aspect ratio        : 16:9
Frame rate mode             : Constant
Frame rate                  : 25.000 FPS
Color space                 : YUV
Chroma subsampling          : 4:2:0
Bit depth                   : 8 bits
Scan type                   : Progressive
Bits/(Pixel*Frame)          : 0.135
Stream size                 : 6.04 GiB (94%)
Source stream size          : 6.29 GiB (98%)
Color range                 : Limited
Color primaries             : BT.709
Transfer characteristics    : BT.709
Matrix coefficients         : BT.709
Codec configuration box     : avcC

Audio
ID                          : 2
Format                      : AAC LC
Format/Info                 : Advanced Audio Codec Low Complexity
Codec ID                    : mp4a-40-2
Duration                    : 2 h 8 min
Bit rate mode               : Variable
Bit rate                    : 125 kb/s
Maximum bit rate            : 129 kb/s
Channel(s)                  : 2 channels
Channel layout              : L R
Sampling rate               : 48.0 kHz
Frame rate                  : 46.875 FPS (1024 SPF)
Compression mode            : Lossy
Stream size                 : 115 MiB (2%)
Language                    : Chinese
Default                     : Yes
Alternate group             : 1

视频截图

留下评论