[2023大陆动作]沧元图[全26集][国语配音/中文字幕][WEB-MP4-2160P(4K)]

%title插图%num

◎标  题 沧元图
◎译  名 The Demon Hunter
◎年  代 2023
◎产  地 中国大陆
◎类  别 动作 / 动画 / 奇幻 / 古装
◎语  言 汉语普通话
◎豆瓣评分 8.5/10 (3490人评价)
◎豆瓣链接 https://movie.douban.com/subject/36117912/
◎导  演 曾元俊 Yuanjun Zeng
◎编  剧 曾元俊 Yuanjun Zeng
◎演  员 段艺璇 Yixuan Duan
      马正阳 Zhengyang Ma
      孙熹鹤 Xihe Sun
      胡正健 Zhengjian Hu
      林强 Qiang Lin
      宝木中阳 Ming Song
      赵震 Zhen Zhao
      刘芊含 Qianhan Liu
      王潇倩 Xiaoqian Wang
      周侗 Dong Zhou
      张胡子 Zhang Huzi

◎简  介
    沧元界妖邪作乱,人族饱受摧残,主角孟川自小立下为母复仇的誓言,以镜湖道院为起点,凭借坚毅无畏的心志与利落果决的刀法身手,惩处奸恶,溃灭妖族,登顶四大道院,名满东宁府,拜上元初山,成就一代神魔。

视频信息

General
Complete name               : \2.168.1.108\downloads\【高清剧集网发布 www.DDHDTV.com】沧元图[全26集][国语配音+中文字幕].Azure.Legacy.S01.2023.2160p.WEB-DL.H265.AAC-DDHDTV\沧元图.Azure.Legacy.S01E01.2023.2160p.WEB-DL.H265.AAC-DDHDTV.mp4
Format                      : MPEG-4
Format profile              : Base Media
Codec ID                    : isom (isom/iso2/mp41)
File size                   : 1.51 GiB
Duration                    : 23 min 35 s
Overall bit rate mode       : Variable
Overall bit rate            : 9 149 kb/s
Frame rate                  : 25.000 FPS
Writing application         : Lavf60.3.100

Video
ID                          : 1
Format                      : HEVC
Format/Info                 : High Efficiency Video Coding
Format profile              : Main 10@L5@Main
Codec ID                    : hev1
Codec ID/Info               : High Efficiency Video Coding
Duration                    : 23 min 35 s
Bit rate                    : 8 950 kb/s
Width                       : 3 840 pixels
Height                      : 2 160 pixels
Display aspect ratio        : 16:9
Frame rate mode             : Constant
Frame rate                  : 25.000 FPS
Color space                 : YUV
Chroma subsampling          : 4:2:0
Bit depth                   : 10 bits
Bits/(Pixel*Frame)          : 0.043
Stream size                 : 1.47 GiB (98%)
Color range                 : Limited
Color primaries             : BT.709
Transfer characteristics    : BT.709
Matrix coefficients         : BT.709
Codec configuration box     : hvcC

Audio
ID                          : 2
Format                      : AAC LC
Format/Info                 : Advanced Audio Codec Low Complexity
Codec ID                    : mp4a-40-2
Duration                    : 23 min 35 s
Bit rate mode               : Variable
Bit rate                    : 192 kb/s
Maximum bit rate            : 195 kb/s
Channel(s)                  : 2 channels
Channel layout              : L R
Sampling rate               : 44.1 kHz
Frame rate                  : 43.066 FPS (1024 SPF)
Compression mode            : Lossy
Stream size                 : 32.4 MiB (2%)
Default                     : Yes
Alternate group             : 1

视频截图

留下评论