[2023大陆剧情]志愿军:雄兵出击[国语配音/中文字幕][WEB-MKV-2160P(4K)]

%title插图%num

◎标  题 志愿军:雄兵出击
◎译  名 The Volunteers: To the War / 志愿军三部曲1 / 伟大的战争·抗美援朝 / 伟大的胜利 / 战与祀 / The Great War
◎年  代 2023
◎产  地 中国大陆
◎类  别 剧情 / 历史 / 战争
◎语  言 汉语普通话 / 英语 / 韩语
◎上映日期 2023-09-28(中国大陆)
◎IMDb评分 4.8/10 (89人评价)
◎IMDb链接 https://www.imdb.com/title/tt22185176/
◎豆瓣评分 7.0/10 (89966人评价)
◎豆瓣链接 https://movie.douban.com/subject/35496350/
◎片  长 141分钟
◎导  演 陈凯歌 Kaige Chen
◎编  剧 张珂 Ke Zhang
      兰晓龙 Xiaolong Lan
◎演  员 唐国强 Guoqiang Tang
      王砚辉 Yanhui Wang
      刘劲 Jin Liu
      辛柏青 Baiqing Xin
      张颂文 Songwen Zhang
      黄晓明 Xiaoming Huang
      章子怡 Ziyi Zhang
      朱亚文 Yawen Zhu
      张子枫 Zifeng Zhang
      魏大勋 Daxun Wei
      肖央 Yang Xiao
      王骁 Xiao Wang
      陈飞宇 Feiyu Chen
      魏晨 Vision Wei
      尹昉 Fang Yin
      张宥浩 Youhao Zhang
      海清 Qing Hai
      王传君 Chuanjun Wang
      郎月婷 Yueting Lang
      杜淳 Chun Du
      贾冰 Bing Jia
      林永健 Yongjian Lin
      王伍福 Wufu Wang
      安荣生 Rongsheng An
      王楷勝 Ting Wang
      郭晓峰 Xiaofeng Guo
      郭晓东 Xiaodong Guo
      李乃文 Naiwen Li
      聂远 Yuan Nie
      唐曾 Zeng Tang
      袁文康 Wenkang Yuan
      赵波 Bo Zhao
      李光洁 Guangjie Li
      张海宇 Haiyu Zhang
      李感 Gan Li
      王道铁 Daotie Wang
      保剑锋 Jianfeng Bao
      纪焕博 Rock Ji
      王乃训 Naixun Wang
      叶禾 He Ye
      李卓阳 Zhuoyang Li
      朱一龙 Yilong Zhu
      苏豪 Hao Su
      文益铭 Yiming Wen
      邓英 Ying Deng

◎简  介

  为纪念抗美援朝战争胜利70周年,《志愿军》三部曲将全景式、多维度立体展现这场新中国的立国之战。电影《志愿军:雄兵出击》为该系列首部。
  1949年建国初期,新中国面临“内忧外患”局面。朝鲜内战爆发以来,美军屡在中朝边境挑衅,平民惨遭轰炸。为了维护来之不易的和平、为了世代长久的安稳,1950年10月,中国人民志愿军入朝,“抗美援朝”战争拉开帷幕。
  这是一场“举国之战”——
  朝鲜战场,即使军备实力对比悬殊,我军却用壮烈牺牲换回节节胜利;
  外交舞台,中华人民共和国代表团首度亮相联合国,中国新声赢得国际敬畏。
  新中国,寸土不让扬国威;新青年,意气风发保家国。

视频信息

General
Unique ID                   : 299195666967220561994696170965313579590 (0xE116FD4AE9552C254E3F15F9F55CEA46)
Complete name               : \2.168.1.108\downloads\【高清影视之家发布 www.HDBTHD.com】志愿军:雄兵出击[国语配音+中文字幕].The.Volunteers.To.the.War.2023.2160p.WEB-DL.H265.HDR.DDP5.1-DreamHD\The.Volunteers.To.the.War.2023.2160p.WEB-DL.H265.HDR.DDP5.1-DreamHD.mkv
Format                      : Matroska
Format version              : Version 4
File size                   : 13.8 GiB
Duration                    : 2 h 20 min
Overall bit rate            : 14.0 Mb/s
Frame rate                  : 24.000 FPS
Encoded date                : 2023-12-01 13:26:12 UTC
Writing application         : mkvmerge v79.0 ('Funeral Pyres') 64-bit
Writing library             : libebml v1.4.4 + libmatroska v1.7.1

Video
ID                          : 1
Format                      : HEVC
Format/Info                 : High Efficiency Video Coding
Format profile              : Main 10@L5@Main
HDR format                  : HDR Vivid, Version 1
Codec ID                    : V_MPEGH/ISO/HEVC
Duration                    : 2 h 19 min
Bit rate                    : 12.7 Mb/s
Width                       : 3 840 pixels
Height                      : 1 608 pixels
Display aspect ratio        : 2.40:1
Frame rate mode             : Constant
Frame rate                  : 24.000 FPS
Color space                 : YUV
Chroma subsampling          : 4:2:0
Bit depth                   : 10 bits
Bits/(Pixel*Frame)          : 0.085
Stream size                 : 12.4 GiB (90%)
Default                     : Yes
Forced                      : No
Color range                 : Limited
Color primaries             : BT.2020
Transfer characteristics    : PQ
Matrix coefficients         : BT.2020 non-constant
Mastering display color pri : R: x=0.708000 y=0.292000, G: x=0.170000 y=0.797000, B: x=0.130000 y=0.046000, White point: x=0.312700 y=0.329000
Mastering display luminance : min: 0.0001 cd/m2, max: 1000 cd/m2
Maximum Content Light Level : 858 cd/m2
Maximum Frame-Average Light : 59 cd/m2

Audio #1
ID                          : 2
Format                      : E-AC-3
Format/Info                 : Enhanced AC-3
Commercial name             : Dolby Digital Plus
Codec ID                    : A_EAC3
Duration                    : 2 h 20 min
Bit rate mode               : Constant
Bit rate                    : 448 kb/s
Channel(s)                  : 6 channels
Channel layout              : L R C LFE Ls Rs
Sampling rate               : 48.0 kHz
Frame rate                  : 31.250 FPS (1536 SPF)
Compression mode            : Lossy
Stream size                 : 449 MiB (3%)
Title                       : Mandarin [DDP5.1]
Language                    : Chinese
Service kind                : Complete Main
Default                     : Yes
Forced                      : No

Audio #2
ID                          : 3
Format                      : E-AC-3
Format/Info                 : Enhanced AC-3
Commercial name             : Dolby Digital Plus
Codec ID                    : A_EAC3
Duration                    : 2 h 19 min
Bit rate mode               : Constant
Bit rate                    : 256 kb/s
Channel(s)                  : 6 channels
Channel layout              : L R C LFE Ls Rs
Sampling rate               : 48.0 kHz
Frame rate                  : 31.250 FPS (1536 SPF)
Compression mode            : Lossy
Stream size                 : 256 MiB (2%)
Title                       : Mandarin [DDP5.1]
Language                    : Chinese
Service kind                : Complete Main
Default                     : Yes
Forced                      : No

Audio #3
ID                          : 4
Format                      : E-AC-3
Format/Info                 : Enhanced AC-3
Commercial name             : Dolby Digital Plus
Codec ID                    : A_EAC3
Duration                    : 2 h 20 min
Bit rate mode               : Constant
Bit rate                    : 256 kb/s
Channel(s)                  : 2 channels
Channel layout              : L R
Sampling rate               : 48.0 kHz
Frame rate                  : 31.250 FPS (1536 SPF)
Bit depth                   : 32 bits
Compression mode            : Lossy
Stream size                 : 257 MiB (2%)
Title                       : Mandarin [DDP2.0]
Language                    : Chinese
Service kind                : Complete Main
Default                     : No
Forced                      : No

Audio #4
ID                          : 5
Format                      : AAC LC
Format/Info                 : Advanced Audio Codec Low Complexity
Codec ID                    : A_AAC-2
Duration                    : 2 h 20 min
Bit rate                    : 256 kb/s
Channel(s)                  : 2 channels
Channel layout              : L R
Sampling rate               : 44.1 kHz
Frame rate                  : 43.066 FPS (1024 SPF)
Compression mode            : Lossy
Stream size                 : 257 MiB (2%)
Title                       : Mandarin [AAC2.0]
Language                    : Chinese
Default                     : No
Forced                      : No

Audio #5
ID                          : 6
Format                      : AAC LC
Format/Info                 : Advanced Audio Codec Low Complexity
Codec ID                    : A_AAC-2
Duration                    : 2 h 19 min
Bit rate                    : 192 kb/s
Channel(s)                  : 2 channels
Channel layout              : L R
Sampling rate               : 44.1 kHz
Frame rate                  : 43.066 FPS (1024 SPF)
Compression mode            : Lossy
Stream size                 : 190 MiB (1%)
Title                       : Mandarin [AAC2.0]
Language                    : Chinese
Default                     : No
Forced                      : No

视频截图

留下评论