[2023大陆剧情]坚如磐石[国语配音/中文字幕][WEB-MKV-2160P(4K)]

%title插图%num

◎标  题 坚如磐石
◎译  名 黑洞 / Under the Light
◎年  代 2023
◎产  地 中国大陆
◎类  别 剧情 / 动作 / 犯罪
◎语  言 汉语普通话
◎上映日期 2023-09-28(中国大陆)
◎IMDb评分 6.2/10 (303人评价)
◎IMDb链接 https://www.imdb.com/title/tt11448070/
◎豆瓣评分 6.3/10 (223212人评价)
◎豆瓣链接 https://movie.douban.com/subject/33447633/
◎片  长 127分钟
◎导  演 张艺谋 Yimou Zhang
◎编  剧 陈宇 Yu Chen
◎演  员 雷佳音 Jiayin Lei
      张国立 Guoli Zhang
      于和伟 Hewei Yu
      周冬雨 Dongyu Zhou
      孙艺洲 Yizhou Sun
      李乃文 Naiwen Li
      许亚军 Yajun Xu
      田雨 Yu Tian
      何政军 Zhengjun He
      徐子力 Zili Xu
      林博洋 Boyang Lin
      陈童 Tong Chen
      陈道明 Daoming Chen
      陈冲 Joan Chen
      王迅 Xun Wang
      赵亮 Liang Zhao
      焦刚 Gang Jiao
      楚布花羯 ChoBu HuaJe

◎简  介
    金江市副市长郑刚(张国立 饰)之子苏见明(雷佳音 饰)不顾父亲的劝阻,应邀赴约首富黎志田(于和伟 饰)的“鸿门宴”,不料却被迫观看了一出“人手下火锅”的猖狂戏码。旧案翻起,风雨欲来,各方蛰伏势力蠢蠢欲动,筹谋与算计、审视与怀疑,光怪陆离之中,人性欲望翻腾,谁将撕去最后的面具?

视频信息

General
Unique ID                   : 20135716954383583758014808506246403033 (0xF25FF7E766965CABE27A6FF19F093D9)
Complete name               : \2.168.1.108\downloads\【高清影视之家发布 www.HDBTHD.com】坚如磐石[国语配音+中文字幕].Under.the.Light.2023.2160p.WEB-DL.H265.HDR.DDP5.1-SONYHD\坚如磐石.Under.the.Light.2023.2160p.WEB-DL.H265.HDR.DDP5.1-SONYHD.mkv
Format                      : Matroska
Format version              : Version 4
File size                   : 11.8 GiB
Duration                    : 2 h 7 min
Overall bit rate            : 13.2 Mb/s
Frame rate                  : 24.000 FPS
Encoded date                : 2023-12-15 08:37:44 UTC
Writing application         : mkvmerge v80.0 ('Roundabout') 64-bit
Writing library             : libebml v1.4.4 + libmatroska v1.7.1 / Lavf57.83.100
Muxer                       : ADWeb

Video
ID                          : 1
Format                      : HEVC
Format/Info                 : High Efficiency Video Coding
Format profile              : Main 10@L5@Main
HDR format                  : HDR Vivid, Version 1
Codec ID                    : V_MPEGH/ISO/HEVC
Duration                    : 2 h 7 min
Bit rate                    : 12.8 Mb/s
Width                       : 3 840 pixels
Height                      : 1 464 pixels
Display aspect ratio        : 2.623
Frame rate mode             : Constant
Frame rate                  : 24.000 FPS
Color space                 : YUV
Chroma subsampling          : 4:2:0
Bit depth                   : 10 bits
Bits/(Pixel*Frame)          : 0.095
Stream size                 : 11.4 GiB (97%)
Default                     : Yes
Forced                      : No
Color range                 : Limited
Color primaries             : BT.2020
Transfer characteristics    : PQ
Matrix coefficients         : BT.2020 non-constant
Mastering display color pri : R: x=0.708000 y=0.292000, G: x=0.170000 y=0.797000, B: x=0.130000 y=0.046000, White point: x=0.312700 y=0.329000
Mastering display luminance : min: 0.0001 cd/m2, max: 1000 cd/m2
Maximum Content Light Level : 294 cd/m2
Maximum Frame-Average Light : 73 cd/m2

Audio #1
ID                          : 2
Format                      : AAC LC
Format/Info                 : Advanced Audio Codec Low Complexity
Codec ID                    : A_AAC-2
Duration                    : 2 h 7 min
Bit rate                    : 192 kb/s
Channel(s)                  : 2 channels
Channel layout              : L R
Sampling rate               : 44.1 kHz
Frame rate                  : 43.066 FPS (1024 SPF)
Compression mode            : Lossy
Stream size                 : 174 MiB (1%)
Language                    : Chinese
Default                     : No
Forced                      : No

Audio #2
ID                          : 3
Format                      : E-AC-3
Format/Info                 : Enhanced AC-3
Commercial name             : Dolby Digital Plus
Codec ID                    : A_EAC3
Duration                    : 2 h 7 min
Bit rate mode               : Constant
Bit rate                    : 256 kb/s
Channel(s)                  : 6 channels
Channel layout              : L R C LFE Ls Rs
Sampling rate               : 48.0 kHz
Frame rate                  : 31.250 FPS (1536 SPF)
Compression mode            : Lossy
Stream size                 : 234 MiB (2%)
Language                    : Chinese
Service kind                : Complete Main
Default                     : Yes
Forced                      : No

视频截图

留下评论