[2023日本动画]映画ドラえもん のび太と空の理想郷 哆啦A梦:大雄与天空的理想乡[国粤日多音轨/简繁字幕][BD-MKV-1080P]

%title插图%num

◎标  题 哆啦A梦:大雄与天空的理想乡
◎译  名 Doraemon the Movie: Nobita’s Sky Utopia
◎片  名 映画ドラえもん のび太と空の理想郷
◎年  代 2023
◎产  地 日本
◎类  别 动画
◎语  言 日语
◎上映日期 2023-06-01(中国大陆) / 2023-03-03(日本)
◎IMDb评分 6.9/10 (804人评价)
◎IMDb链接 https://www.imdb.com/title/tt21223380/
◎豆瓣评分 7.1/10 (22842人评价)
◎豆瓣链接 https://movie.douban.com/subject/35967711/
◎片  长 107分钟
◎导  演 堂山卓见 Takumi Doyama
◎编  剧 古泽良太 Ryota Kosawa
      藤子·F·不二雄 F. Fujio Fujiko
◎演  员 水田山葵 Wasabi Mizuta
      大原惠美 Megumi Oohara
      嘉数由美 Yumi Kakazu
      木村昴 Subaru Kimura
      关智一 Tomokazu Seki
      永濑廉 Ren Nagase
      井上麻里奈 Marina Inoue
      水濑祈 Inori Minase
      三石琴乃 Kotono Mitsuishi
      松本保典 Yasunori Matsumoto
      高木涉 Wataru Takagi
      荻野志保子 Shihoko Hagino
      石井康嗣 Kôji Ishii
      园崎未惠 Mie Sonozaki
      村濑步 Ayumu Murase
      中尾隆圣 Ryûsei Nakao
      松丸幸太郎 Kotaro Matsumoto
      深田爱衣 Fukada Ai
      山里亮太 Ryôta Yamasato
      藤本美贵 Miki Fujimoto

◎简  介
   平凡的一天,出木杉君带来了《乌托邦》这本小说,为同学们讲述理想国的故事。那个没有考试和学校的国度,深深吸引着吊车尾的大雄(大原惠美 配音)。偶然机缘,大雄在后山看到了一个新月形状的悬浮物停在空中,随后很快消失。这个发现让他无比兴奋,于是认定这就是传说中的乌托邦。他拜托哆啦A梦(水田山葵 配音)寻找历史上的相关报道,随后又买来时空穿梭飞艇,和胖虎(木村昴 配音)、小夫(关智一 配音)、静香(嘉数由美 配音)前往新闻中各个时代的目击点寻找新月形悬浮物。但是大多数发现都是自然现象或者人工产物,似乎天空的乌托邦真的就只是一个传说。
  知道某天,那个悬浮物再度出现,引领少年们开启一段全新的冒险……

视频信息

General
Unique ID                   : 332446992466624783513706378387589009868 (0xFA1AF636A4C2771B7A9BEF97C00591CC)
Complete name               : \2.168.1.108\downloads\【高清影视之家发布 www.HDBTHD.com】哆啦A梦:大雄与天空的理想乡[国粤日多音轨+简繁字幕].Doraemon.the.Movie.Nobitas.Sky.Utopia.2023.1080p.BluRay.x264.Atmos.TrueHD7.1-CTRLHD\Doraemon.the.Movie.Nobitas.Sky.Utopia.2023.1080p.BluRay.x264.Atmos.TrueHD7.1-CTRLHD.mkv
Format                      : Matroska
Format version              : Version 4
File size                   : 13.9 GiB
Duration                    : 1 h 48 min
Overall bit rate mode       : Variable
Overall bit rate            : 18.4 Mb/s
Frame rate                  : 23.976 FPS
Encoded date                : 2023-10-18 13:42:08 UTC
Writing application         : mkvmerge v77.0 ('Elemental') 64-bit
Writing library             : libebml v1.4.4 + libmatroska v1.7.1

Video
ID                          : 1
Format                      : AVC
Format/Info                 : Advanced Video Codec
Format profile              : Progressive High@L4.1
Format settings             : CABAC / 4 Ref Frames
Format settings, CABAC      : Yes
Format settings, Reference  : 4 frames
Codec ID                    : V_MPEG4/ISO/AVC
Duration                    : 1 h 48 min
Bit rate                    : 10 000 kb/s
Width                       : 1 920 pixels
Height                      : 1 080 pixels
Display aspect ratio        : 16:9
Frame rate mode             : Constant
Frame rate                  : 23.976 (24000/1001) FPS
Color space                 : YUV
Chroma subsampling          : 4:2:0
Bit depth                   : 8 bits
Scan type                   : Progressive
Bits/(Pixel*Frame)          : 0.201
Stream size                 : 7.58 GiB (54%)
Writing library             : x264 core 157 r2969 d4099dd
Encoding settings           : cabac=1 / ref=4 / deblock=1:-1:-1 / analyse=0x3:0x113 / me=umh / subme=11 / psy=1 / psy_rd=1.00:0.00 / mixed_ref=1 / me_range=64 / chroma_me=1 / trellis=2 / 8x8dct=1 / cqm=0 / deadzone=21,11 / fast_pskip=1 / chroma_qp_offset=-4 / threads=34 / lookahead_threads=5 / sliced_threads=0 / nr=0 / decimate=0 / interlaced=0 / bluray_compat=0 / constrained_intra=0 / bframes=8 / b_pyramid=2 / b_adapt=2 / b_bias=0 / direct=3 / weightb=1 / open_gop=0 / weightp=2 / keyint=250 / keyint_min=23 / scenecut=40 / intra_refresh=0 / rc=2pass / mbtree=0 / bitrate=10000 / ratetol=1.0 / qcomp=0.60 / qpmin=0 / qpmax=69 / qpstep=4 / cplxblur=20.0 / qblur=0.5 / ip_ratio=1.40 / pb_ratio=1.30 / aq=1:0.80
Language                    : English
Default                     : Yes
Forced                      : No

Audio #1
ID                          : 2
Format                      : MLP FBA 16-ch
Format/Info                 : Meridian Lossless Packing FBA with 16-channel presentation
Commercial name             : Dolby TrueHD with Dolby Atmos
Codec ID                    : A_TRUEHD
Duration                    : 1 h 48 min
Bit rate mode               : Variable
Bit rate                    : 6 513 kb/s
Maximum bit rate            : 11.2 Mb/s
Channel(s)                  : 8 channels
Channel layout              : L R C LFE Ls Rs Lb Rb
Sampling rate               : 48.0 kHz
Frame rate                  : 1 200.000 FPS (40 SPF)
Compression mode            : Lossless
Stream size                 : 4.94 GiB (35%)
Title                       : 日语
Language                    : Japanese
Default                     : No
Forced                      : No
Number of dynamic objects   : 15
Bed channel count           : 1 channel
Bed channel configuration   : LFE

Audio #2
ID                          : 3
Format                      : AC-3
Format/Info                 : Audio Coding 3
Commercial name             : Dolby Digital
Codec ID                    : A_AC3
Duration                    : 1 h 48 min
Bit rate mode               : Constant
Bit rate                    : 640 kb/s
Channel(s)                  : 6 channels
Channel layout              : L R C LFE Ls Rs
Sampling rate               : 48.0 kHz
Frame rate                  : 31.250 FPS (1536 SPF)
Compression mode            : Lossy
Stream size                 : 497 MiB (3%)
Title                       : 日语
Language                    : Japanese
Service kind                : Complete Main
Default                     : No
Forced                      : No

Audio #3
ID                          : 4
Format                      : AC-3
Format/Info                 : Audio Coding 3
Commercial name             : Dolby Digital
Codec ID                    : A_AC3
Duration                    : 1 h 48 min
Bit rate mode               : Constant
Bit rate                    : 448 kb/s
Channel(s)                  : 6 channels
Channel layout              : L R C LFE Ls Rs
Sampling rate               : 48.0 kHz
Frame rate                  : 31.250 FPS (1536 SPF)
Compression mode            : Lossy
Stream size                 : 348 MiB (2%)
Title                       : 台配国语
Language                    : Twi
Service kind                : Complete Main
Default                     : Yes
Forced                      : No

Audio #4
ID                          : 5
Format                      : AC-3
Format/Info                 : Audio Coding 3
Commercial name             : Dolby Digital
Codec ID                    : A_AC3
Duration                    : 1 h 48 min
Bit rate mode               : Constant
Bit rate                    : 640 kb/s
Channel(s)                  : 6 channels
Channel layout              : L R C LFE Ls Rs
Sampling rate               : 48.0 kHz
Frame rate                  : 31.250 FPS (1536 SPF)
Compression mode            : Lossy
Stream size                 : 497 MiB (3%)
Title                       : 粤语
Language                    : Chinese
Service kind                : Complete Main
Default                     : No
Forced                      : No

Text #1
ID                          : 6
Format                      : PGS
Muxing mode                 : zlib
Codec ID                    : S_HDMV/PGS
Codec ID/Info               : Picture based subtitle format used on BDs/HD-DVDs
Duration                    : 1 h 46 min
Bit rate                    : 26.0 kb/s
Frame rate                  : 0.435 FPS
Count of elements           : 2789
Stream size                 : 19.8 MiB (0%)
Title                       : 台配国语简中
Language                    : Chinese
Default                     : Yes
Forced                      : No

Text #2
ID                          : 7
Format                      : PGS
Muxing mode                 : zlib
Codec ID                    : S_HDMV/PGS
Codec ID/Info               : Picture based subtitle format used on BDs/HD-DVDs
Duration                    : 1 h 46 min
Bit rate                    : 27.4 kb/s
Frame rate                  : 0.435 FPS
Count of elements           : 2789
Stream size                 : 20.9 MiB (0%)
Title                       : 台配国语繁中
Language                    : Chinese
Default                     : No
Forced                      : No

Text #3
ID                          : 8
Format                      : PGS
Muxing mode                 : zlib
Codec ID                    : S_HDMV/PGS
Codec ID/Info               : Picture based subtitle format used on BDs/HD-DVDs
Duration                    : 1 h 43 min
Bit rate                    : 21.9 kb/s
Frame rate                  : 0.460 FPS
Count of elements           : 2856
Stream size                 : 16.2 MiB (0%)
Title                       : 粤语繁中
Language                    : Chinese
Default                     : No
Forced                      : No

视频截图

Visits13

Leave a Reply