[2022欧美剧情]The Batman:新蝙蝠侠[官译多国字幕][WEB-MKV-2160P(4K)]

%title插图%num

◎译  名 新蝙蝠侠 / (港 / 台) / 重启版蝙蝠侠
◎片  名 The Batman
◎年  代 2022
◎产  地 美国
◎类  别 剧情 / 动作 / 悬疑 / 犯罪
◎语  言 英语
◎上映日期 2022-03-18(中国大陆) / 2022-03-01(韩国) / 2022-03-04(美国) / 2022-04-19(美国网络)
◎IMDb链接 https://www.imdb.com/title/tt1877830/
◎豆瓣评分 7.6/10 (151658人评价)
◎豆瓣链接 https://movie.douban.com/subject/6424756/
◎片  长 175分钟
◎导  演 马特·里夫斯 Matt Reeves (id:1045032)
◎编  剧 马特·里夫斯 Matt Reeves (id:1045032)
      彼得·克莱格 Peter Craig (id:1041402)
      比尔·芬格 Bill Finger (id:1006536)
      鲍勃·凯恩 Bob Kane (id:1041392)
      马特森·汤姆林 Mattson Tomlin (id:1261166)
◎演  员 罗伯特·帕丁森 Robert Pattinson (id:1035656)
      佐伊·克罗维兹 Zo? Kravitz (id:1229502)
      保罗·达诺 Paul Dano (id:1027774)
      科林·法瑞尔 Colin Farrell (id:1084255)
      杰弗里·怀特 Jeffrey Wright (id:1036484)
      安迪·瑟金斯 Andy Serkis (id:1002708)
      约翰·特托罗 John Turturro (id:1031851)
      彼得·萨斯加德 Peter Sarsgaard (id:1031800)
      巴里·基奥恩 Barry Keoghan (id:1360874)
      杰米·劳森 Jayme Lawson (id:1426399)
      吉尔·佩雷斯-亚伯拉罕 Gil Perez-Abraham (id:1417825)
      彼得·麦克唐纳德 Peter McDonald (id:1005405)
      康·奥尼尔 Con O’Neill (id:1320053)
      亚历克斯·费恩斯 Alex Ferns (id:1028439)
      鲁伯特·彭利-琼斯 Rupert Penry-Jones (id:1136688)
      科莎·恩格勒 Kosha Engler (id:1189258)
      杰宁·哈瑞妮 Janine Harouni (id:1392803)
      卢克·罗伯茨 Luke Roberts (id:1347621)
      斯特拉·斯托克尔 Stella Stocker (id:1347692)
      桑德拉·迪金森 Sandra Dickinson (id:1090104)
      杰克·班尼特 Jack Bennett (id:1018997)
      约瑟夫·巴德拉玛 Joseph Balderrama (id:1400929)
      詹姆斯·伊莱斯 James Eeles (id:1376659)
      小利莫尔·马雷特 Leemore Marrett Jr. (id:1463867)
      斯图尔特·亚历山大 Stewart Alexander (id:1458669)
      马库斯·奥尼卢德 Marcus Onilude (id:1466041)
      埃琳娜·沙雷 Elena Saurel (id:1414357)
      托德·博伊斯 Todd Boyce (id:1350567)
      道格拉斯·罗素 Douglas Russell (id:1354930)
      查尔斯·卡维尔 Charles Carver (id:1315305)
      马克斯·卡维尔 Max Carver (id:1271263)
      马克·基林 Mark Killeen (id:1354933)
      洛娜·布朗 Lorna Brown (id:1279442)
      埃利奥特·沃伦 Elliot Warren (id:1433606)
      小田部阿基 Akie Kotabe (id:1231929)
      布隆森·韦伯 Bronson Webb (id:1032080)
      阿瑟·李 Arthur Lee (id:1411947)
      派瑞 格拉斯普 Parry Glasspool (id:1350561)
      娜塔丽·阿明 Nathalie Armin (id:1397366)
      何塞?帕尔马 Jose Palma (id:1418875)
      玛吉·巴基尔 Maggie Bakir (id:1454332)
      露丝·霍洛克斯 Ruth Horrocks (id:1397361)
      贝恩·科拉科 Bern Colla?o (id:1394212)
      丹尼尔·厄根 Daniel Eghan (id:1367202)
      雷切尔·汉德肖 Rachel Handshaw (id:1433060)
      爵克·哈迪 Juke Hardy (id:1381994)
      吉米·斯达 Jimmy Star (id:1273873)
      马特·里夫斯 Matt Reeves (id:1045032)
      迪伦·克拉克 Dylan Clark (id:1419902)
      马切尔·E·尤斯兰 Michael E. Uslan (id:1413601)
      迈克·吉亚奇诺 Michael Giacchino (id:1027937)
      格雷格·弗莱瑟 Greig Fraser (id:1028361)
      泰勒·纳尔逊 Tyler Nelson (id:1431508)
      辛迪·托兰 Cindy Tolan (id:1303459)
      詹姆斯·钦伦德 James Chinlund (id:1418711)
      大卫·克罗斯曼 David Crossman (id:1006793)
      杰奎琳·杜兰 Jacqueline Durran (id:1282857)
      格林·狄龙 Glyn Dillon (id:1424821)
      丹·赖蒙 Dan Lemmon (id:1289780)

◎简  介
  布鲁斯·韦恩(罗伯特·帕丁森 饰)化身蝙蝠侠于哥谭市行侠仗义两年后,罪犯皆闻风丧胆,他也因此深入接触到哥谭市的阴暗面。他潜行于哥谭市腐败的政要名流关系网中,身边仅有的几个值得信赖的盟友——管家阿尔弗雷德·潘尼沃斯(安迪·瑟金斯 饰)与詹姆斯·戈登警长(杰弗里·怀特 饰)。这位独行的“义警侠探”在哥谭市民心中已成为“复仇”二字最当仁不让的代名词。

视频信息

General
Unique ID                   : 236089419975389261591863405703685473757 (0xB19D2B18E0D37F512F05DF131F3405DD)
Complete name               : E:\The.Batman.2022.2160p.MA.WEB-DL.x265.10bit.HDR.DDP5.1.Atmos-SWTYBLZ.mkv
Format                      : Matroska
Format version              : Version 4
File size                   : 31.7 GiB
Duration                    : 2 h 56 min
Overall bit rate            : 25.7 Mb/s
Encoded date                : UTC 2022-04-18 12:44:13
Writing application         : mkvmerge v67.0.0 ('Under Stars') 64-bit
Writing library             : libebml v1.4.2 + libmatroska v1.6.4

Video
ID                          : 1
Format                      : HEVC
Format/Info                 : High Efficiency Video Coding
Format profile              : Main 10@L5@High
HDR format                  : SMPTE ST 2086, HDR10 compatible
Codec ID                    : V_MPEGH/ISO/HEVC
Duration                    : 2 h 56 min
Bit rate                    : 25.0 Mb/s
Width                       : 3 840 pixels
Height                      : 2 160 pixels
Display aspect ratio        : 16:9
Frame rate mode             : Constant
Frame rate                  : 23.976 (24000/1001) FPS
Color space                 : YUV
Chroma subsampling          : 4:2:0 (Type 2)
Bit depth                   : 10 bits
Bits/(Pixel*Frame)          : 0.126
Stream size                 : 30.7 GiB (97%)
Language                    : English
Default                     : Yes
Forced                      : No
Color range                 : Limited
Color primaries             : BT.2020
Transfer characteristics    : PQ
Matrix coefficients         : BT.2020 non-constant
Mastering display color pri : Display P3
Mastering display luminance : min: 0.0001 cd/m2, max: 1000 cd/m2
Maximum Content Light Level : 413 cd/m2
Maximum Frame-Average Light : 65 cd/m2

Audio
ID                          : 2
Format                      : E-AC-3 JOC
Format/Info                 : Enhanced AC-3 with Joint Object Coding
Commercial name             : Dolby Digital Plus with Dolby Atmos
Codec ID                    : A_EAC3
Duration                    : 2 h 56 min
Bit rate mode               : Constant
Bit rate                    : 768 kb/s
Channel(s)                  : 6 channels
Channel layout              : L R C LFE Ls Rs
Sampling rate               : 48.0 kHz
Frame rate                  : 31.250 FPS (1536 SPF)
Compression mode            : Lossy
Delay relative to video     : 210 ms
Stream size                 : 968 MiB (3%)
Language                    : English
Service kind                : Complete Main
Default                     : Yes
Forced                      : No
Complexity index            : 16
Number of dynamic objects   : 15
Bed channel count           : 1 channel
Bed channel configuration   : LFE

Text #1
ID                          : 3
Format                      : UTF-8
Codec ID                    : S_TEXT/UTF8
Codec ID/Info               : UTF-8 Plain Text
Duration                    : 2 h 43 min
Bit rate                    : 45 b/s
Count of elements           : 2040
Stream size                 : 54.7 KiB (0%)
Language                    : English
Default                     : Yes
Forced                      : No

Text #2
ID                          : 4
Format                      : UTF-8
Codec ID                    : S_TEXT/UTF8
Codec ID/Info               : UTF-8 Plain Text
Duration                    : 2 h 55 min
Bit rate                    : 53 b/s
Count of elements           : 2573
Stream size                 : 69.3 KiB (0%)
Title                       : SDH
Language                    : English
Default                     : No
Forced                      : No

Text #3
ID                          : 5
Format                      : UTF-8
Codec ID                    : S_TEXT/UTF8
Codec ID/Info               : UTF-8 Plain Text
Duration                    : 2 h 55 min
Bit rate                    : 75 b/s
Count of elements           : 1937
Stream size                 : 97.4 KiB (0%)
Language                    : Arabic
Default                     : No
Forced                      : No

Text #4
ID                          : 6
Format                      : UTF-8
Codec ID                    : S_TEXT/UTF8
Codec ID/Info               : UTF-8 Plain Text
Duration                    : 2 h 55 min
Bit rate                    : 65 b/s
Count of elements           : 1918
Stream size                 : 84.9 KiB (0%)
Language                    : Bulgarian
Default                     : No
Forced                      : No

Text #5
ID                          : 7
Format                      : UTF-8
Codec ID                    : S_TEXT/UTF8
Codec ID/Info               : UTF-8 Plain Text
Duration                    : 2 h 55 min
Bit rate                    : 41 b/s
Count of elements           : 2074
Stream size                 : 54.1 KiB (0%)
Title                       : Simplified
Language                    : Chinese
Default                     : No
Forced                      : No

Text #6
ID                          : 8
Format                      : UTF-8
Codec ID                    : S_TEXT/UTF8
Codec ID/Info               : UTF-8 Plain Text
Duration                    : 2 h 54 min
Bit rate                    : 36 b/s
Count of elements           : 1812
Stream size                 : 46.5 KiB (0%)
Title                       : Traditional
Language                    : Chinese
Default                     : No
Forced                      : No

Text #7
ID                          : 9
Format                      : UTF-8
Codec ID                    : S_TEXT/UTF8
Codec ID/Info               : UTF-8 Plain Text
Duration                    : 2 h 54 min
Bit rate                    : 39 b/s
Count of elements           : 1926
Stream size                 : 50.5 KiB (0%)
Language                    : Czech
Default                     : No
Forced                      : No

Text #8
ID                          : 10
Format                      : UTF-8
Codec ID                    : S_TEXT/UTF8
Codec ID/Info               : UTF-8 Plain Text
Duration                    : 2 h 53 min
Bit rate                    : 36 b/s
Count of elements           : 1259
Stream size                 : 46.0 KiB (0%)
Language                    : Danish
Default                     : No
Forced                      : No

Text #9
ID                          : 11
Format                      : UTF-8
Codec ID                    : S_TEXT/UTF8
Codec ID/Info               : UTF-8 Plain Text
Duration                    : 2 h 55 min
Bit rate                    : 55 b/s
Count of elements           : 1864
Stream size                 : 71.9 KiB (0%)
Title                       : SDH
Language                    : German
Default                     : No
Forced                      : No

Text #10
ID                          : 12
Format                      : UTF-8
Codec ID                    : S_TEXT/UTF8
Codec ID/Info               : UTF-8 Plain Text
Duration                    : 2 h 54 min
Bit rate                    : 48 b/s
Count of elements           : 1581
Stream size                 : 62.2 KiB (0%)
Language                    : German
Default                     : No
Forced                      : No

Text #11
ID                          : 13
Format                      : UTF-8
Codec ID                    : S_TEXT/UTF8
Codec ID/Info               : UTF-8 Plain Text
Duration                    : 2 h 54 min
Bit rate                    : 68 b/s
Count of elements           : 1912
Stream size                 : 87.4 KiB (0%)
Language                    : Greek
Default                     : No
Forced                      : No

Text #12
ID                          : 14
Format                      : UTF-8
Codec ID                    : S_TEXT/UTF8
Codec ID/Info               : UTF-8 Plain Text
Duration                    : 2 h 54 min
Bit rate                    : 41 b/s
Count of elements           : 1905
Stream size                 : 52.8 KiB (0%)
Language                    : Spanish
Default                     : No
Forced                      : No

Text #13
ID                          : 15
Format                      : UTF-8
Codec ID                    : S_TEXT/UTF8
Codec ID/Info               : UTF-8 Plain Text
Duration                    : 2 h 54 min
Bit rate                    : 43 b/s
Count of elements           : 1928
Stream size                 : 55.9 KiB (0%)
Title                       : Latin American
Language                    : Spanish
Default                     : No
Forced                      : No

Text #14
ID                          : 16
Format                      : UTF-8
Codec ID                    : S_TEXT/UTF8
Codec ID/Info               : UTF-8 Plain Text
Duration                    : 2 h 54 min
Bit rate                    : 47 b/s
Count of elements           : 1947
Stream size                 : 60.3 KiB (0%)
Language                    : Estonian
Default                     : No
Forced                      : No

Text #15
ID                          : 17
Format                      : UTF-8
Codec ID                    : S_TEXT/UTF8
Codec ID/Info               : UTF-8 Plain Text
Duration                    : 2 h 54 min
Bit rate                    : 44 b/s
Count of elements           : 1940
Stream size                 : 56.6 KiB (0%)
Language                    : Finnish
Default                     : No
Forced                      : No

Text #16
ID                          : 18
Format                      : UTF-8
Codec ID                    : S_TEXT/UTF8
Codec ID/Info               : UTF-8 Plain Text
Duration                    : 2 h 54 min
Bit rate                    : 67 b/s
Count of elements           : 1929
Stream size                 : 86.7 KiB (0%)
Language                    : Hebrew
Default                     : No
Forced                      : No

Text #17
ID                          : 19
Format                      : UTF-8
Codec ID                    : S_TEXT/UTF8
Codec ID/Info               : UTF-8 Plain Text
Duration                    : 2 h 54 min
Bit rate                    : 38 b/s
Count of elements           : 1451
Stream size                 : 49.0 KiB (0%)
Language                    : Hungarian
Default                     : No
Forced                      : No

Text #18
ID                          : 20
Format                      : UTF-8
Codec ID                    : S_TEXT/UTF8
Codec ID/Info               : UTF-8 Plain Text
Duration                    : 2 h 54 min
Bit rate                    : 39 b/s
Count of elements           : 1928
Stream size                 : 50.5 KiB (0%)
Language                    : Indonesian
Default                     : No
Forced                      : No

Text #19
ID                          : 21
Format                      : UTF-8
Codec ID                    : S_TEXT/UTF8
Codec ID/Info               : UTF-8 Plain Text
Duration                    : 2 h 55 min
Bit rate                    : 54 b/s
Count of elements           : 2513
Stream size                 : 69.8 KiB (0%)
Title                       : SDH
Language                    : Italian
Default                     : No
Forced                      : No

Text #20
ID                          : 22
Format                      : UTF-8
Codec ID                    : S_TEXT/UTF8
Codec ID/Info               : UTF-8 Plain Text
Duration                    : 2 h 54 min
Bit rate                    : 42 b/s
Count of elements           : 1971
Stream size                 : 54.3 KiB (0%)
Language                    : Italian
Default                     : No
Forced                      : No

Text #21
ID                          : 23
Format                      : UTF-8
Codec ID                    : S_TEXT/UTF8
Codec ID/Info               : UTF-8 Plain Text
Duration                    : 2 h 54 min
Bit rate                    : 36 b/s
Count of elements           : 1773
Stream size                 : 46.5 KiB (0%)
Language                    : Japanese
Default                     : No
Forced                      : No

Text #22
ID                          : 24
Format                      : UTF-8
Codec ID                    : S_TEXT/UTF8
Codec ID/Info               : UTF-8 Plain Text
Duration                    : 2 h 55 min
Bit rate                    : 34 b/s
Count of elements           : 5
Stream size                 : 44.2 KiB (0%)
Language                    : Korean
Default                     : No
Forced                      : No

Text #23
ID                          : 25
Format                      : UTF-8
Codec ID                    : S_TEXT/UTF8
Codec ID/Info               : UTF-8 Plain Text
Duration                    : 2 h 55 min
Bit rate                    : 41 b/s
Count of elements           : 1924
Stream size                 : 54.0 KiB (0%)
Language                    : Lithuanian
Default                     : No
Forced                      : No

Text #24
ID                          : 26
Format                      : UTF-8
Codec ID                    : S_TEXT/UTF8
Codec ID/Info               : UTF-8 Plain Text
Duration                    : 2 h 55 min
Bit rate                    : 41 b/s
Count of elements           : 1953
Stream size                 : 54.0 KiB (0%)
Language                    : Latvian
Default                     : No
Forced                      : No

Text #25
ID                          : 27
Format                      : UTF-8
Codec ID                    : S_TEXT/UTF8
Codec ID/Info               : UTF-8 Plain Text
Duration                    : 2 h 53 min
Bit rate                    : 37 b/s
Count of elements           : 1333
Stream size                 : 47.6 KiB (0%)
Language                    : Dutch
Default                     : No
Forced                      : No

Text #26
ID                          : 28
Format                      : UTF-8
Codec ID                    : S_TEXT/UTF8
Codec ID/Info               : UTF-8 Plain Text
Duration                    : 2 h 54 min
Bit rate                    : 38 b/s
Count of elements           : 1554
Stream size                 : 49.5 KiB (0%)
Language                    : Norwegian
Default                     : No
Forced                      : No

Text #27
ID                          : 29
Format                      : UTF-8
Codec ID                    : S_TEXT/UTF8
Codec ID/Info               : UTF-8 Plain Text
Duration                    : 2 h 54 min
Bit rate                    : 36 b/s
Count of elements           : 1843
Stream size                 : 46.7 KiB (0%)
Language                    : Polish
Default                     : No
Forced                      : No

Text #28
ID                          : 30
Format                      : UTF-8
Codec ID                    : S_TEXT/UTF8
Codec ID/Info               : UTF-8 Plain Text
Duration                    : 2 h 54 min
Bit rate                    : 45 b/s
Count of elements           : 1903
Stream size                 : 57.4 KiB (0%)
Language                    : Portuguese
Default                     : No
Forced                      : No

Text #29
ID                          : 31
Format                      : UTF-8
Codec ID                    : S_TEXT/UTF8
Codec ID/Info               : UTF-8 Plain Text
Duration                    : 2 h 54 min
Bit rate                    : 42 b/s
Count of elements           : 1919
Stream size                 : 54.3 KiB (0%)
Title                       : Brazilian
Language                    : Portuguese
Default                     : No
Forced                      : No

Text #30
ID                          : 32
Format                      : UTF-8
Codec ID                    : S_TEXT/UTF8
Codec ID/Info               : UTF-8 Plain Text
Duration                    : 2 h 54 min
Bit rate                    : 36 b/s
Count of elements           : 1856
Stream size                 : 46.4 KiB (0%)
Language                    : Slovak
Default                     : No
Forced                      : No

Text #31
ID                          : 33
Format                      : UTF-8
Codec ID                    : S_TEXT/UTF8
Codec ID/Info               : UTF-8 Plain Text
Duration                    : 2 h 54 min
Bit rate                    : 38 b/s
Count of elements           : 1400
Stream size                 : 49.0 KiB (0%)
Language                    : Swedish
Default                     : No
Forced                      : No

Text #32
ID                          : 34
Format                      : UTF-8
Codec ID                    : S_TEXT/UTF8
Codec ID/Info               : UTF-8 Plain Text
Duration                    : 2 h 55 min
Bit rate                    : 99 b/s
Count of elements           : 1928
Stream size                 : 128 KiB (0%)
Language                    : Thai
Default                     : No
Forced                      : No

Text #33
ID                          : 35
Format                      : UTF-8
Codec ID                    : S_TEXT/UTF8
Codec ID/Info               : UTF-8 Plain Text
Duration                    : 2 h 54 min
Bit rate                    : 42 b/s
Count of elements           : 1920
Stream size                 : 54.4 KiB (0%)
Language                    : Turkish
Default                     : No
Forced                      : No

Menu
00:00:00.000                : en:1
00:12:02.000                : en:2
00:23:22.000                : en:3
00:32:56.000                : en:4
00:44:38.000                : en:5
00:55:44.000                : en:6
01:04:06.000                : en:7
01:15:51.000                : en:8
01:27:06.000                : en:9
01:40:48.000                : en:10
01:52:12.000                : en:11
02:00:47.000                : en:12
02:11:39.000                : en:13
02:21:06.000                : en:14
02:33:06.000                : en:15
02:45:27.000                : en:16

视频截图

下载地址

The.Batman.2022.2160p.MA.WEB-DL.x265.10bit.HDR.DDP5.1.Atmos-SWTYBLZ 31.67GB:magnet:?xt=urn:btih:E12E80D5CB8AF42F72970F085A9F662A2EC8D70E

The.Batman.2022.2160p.MA.WEB-DL.x265.10bit.SDR.DDP5.1.Atmos-SWTYBLZ 31.71GB:magnet:?xt=urn:btih:5EF83D6CD012470BD07D10D68290E1CF7BAEE2FF

新蝙蝠侠[内封院线中文字幕调成双语].The.Batman.2022.2160p.HMAX.WEB-DL.DDP.5.1.Atmos.HDR.H.265-CTRLWEB 23.06GB:magnet:?xt=urn:btih:D24C9ACAD21E89EB3D835F30AC3B06BE93DA39E2

新蝙蝠侠[中英字幕].The.Batman.2022.2160p.WEB-DL.DDP5.1.x264-OPT 15.32GB:magnet:?xt=urn:btih:D653F11FC212C11B3876FFCDFDDE6C14D0849EDC

新蝙蝠侠[中英字幕].The.Batman.2022.2160p.WEB-DL.SDR.Atmos.DDP5.1.x265-OPT 15.77GB:magnet:?xt=urn:btih:85FCA1AB3F40F8E759EFD02DEF373628ACEEDAE5

X蝙F侠.The.Batman.2022.HD2160P.AAC.H264.CHS-ENG.BTSJ5 6.56GB:magnet:?xt=urn:btih:D6B5C87C05B0DC8B9461E6B0A86F4B7FA7165639

新蝙蝠侠(中英双字幕).The.Batman.2022.WEB-1080p.X264.AAC.CHS.ENG-UUMp4 3.38GB:magnet:?xt=urn:btih:5F33C20F33687E4BD30BDFABB29045B45412D118

新BF侠.2022.HD1080P.AAC.H264.CHS-ENG.BTSJ5 2.79GB:magnet:?xt=urn:btih:1B011EC7D29CABED3E552B1547DB0C9151285C7E

蝙蝠侠黑暗骑士[共3部合集][国英多音轨+简繁字幕].The.Dark.Knight.Trilogy.2005-2012.UHD.BluRay.2160p.2Audio.DTS-HD.MA5.1.x265.10bit.HDR-ALT 52.27GB:magnet:?xt=urn:btih:6907903F64E092B2693D29F635B74E5CF958875B&dn=%E3%80%90%E6%9B%B4%E5%A4%9A%E9%AB%98%E6%B8%85%E7%94%B5%E5%BD%B1%E8%AE%BF%E9%97%AE%20www.mkvhome.com%E3%80%91%E8%9D%99%E8%9D%A0%E4%BE%A0%E9%BB%91%E6%9A%97%E9%AA%91%E5%A3%AB%5B%E5%85%B13%E9%83%A8%E5%90%88%E9%9B%86%5D%5B%E5%9B%BD%E8%8B%B1%E5%A4%9A%E9%9F%B3%E8%BD%A8%2B%E7%AE%80%E7%B9%81%E5%AD%97%E5%B9%95%5D.The.Dark.Knight.Trilogy.2005-2012.UHD.BluRay.2160p.2Audio.DTS-HD.MA5.1.x265.10bit.HDR-ALT

蝙蝠侠黑暗骑士[共3部合集][国英多音轨+简繁字幕].The.Dark.Knight.Trilogy.2005-2012.BluRay.1080p.DTS-HD.MA5.1.TrueHD.5.1.x265.10bit-ALT 26.88GB:magnet:?xt=urn:btih:CD3554C73498D16B2686C8285887678537CA3B79&dn=%E3%80%90%E6%9B%B4%E5%A4%9A%E9%AB%98%E6%B8%85%E7%94%B5%E5%BD%B1%E8%AE%BF%E9%97%AE%20www.mkvhome.com%E3%80%91%E8%9D%99%E8%9D%A0%E4%BE%A0%E9%BB%91%E6%9A%97%E9%AA%91%E5%A3%AB%5B%E5%85%B13%E9%83%A8%E5%90%88%E9%9B%86%5D%5B%E5%9B%BD%E8%8B%B1%E5%A4%9A%E9%9F%B3%E8%BD%A8%2B%E7%AE%80%E7%B9%81%E5%AD%97%E5%B9%95%5D.The.Dark.Knight.Trilogy.2005-2012.BluRay.1080p.DTS-HD.MA5.1.TrueHD.5.1.x265.10bit-ALT

1-2-3-4-5-6-7.1989-2012.BD1080P高清国英双语.中英字幕无水印 40.82GB:magnet:?xt=urn:btih:7B544DFAE48A2A53338888AC15E157D0EE4A42B6

[:黑暗骑士崛起]The.Dark.Knight.Rises.2012.2160p.BluRay.HDR.H265.国英双语.中英特效.DTS-HDBOBO 25.46GB:magnet:?xt=urn:btih:1257F5F735147FE88A64E292A5073CE8E3771DDB

[:黑暗骑士]The.Dark.Knight.2008.2160p.BluRay.HDR.H265.国英双语.中英特效.DTS-HD.BOBO 24.28GB:magnet:?xt=urn:btih:55FECA899F1D78CDF7A6A0DDD48BD5F82C60E428

[:侠影之谜]Batman.Begins.2005.2160p.BluRay.HDR.H265.国英双语.中英特效.DTS-HD.BOBO 24.21GB:magnet:?xt=urn:btih:D1C50647EA05F3D02CAEA4799B5F1FA0C51D5433

留下评论

LightDark
LightDark