[2022欧美剧情]Rescued by Ruby:义犬救主[国英双语/官译多国字幕][WEB-DL-MKV-1080P]

%title插图%num

◎译  名 义犬救主/搜救犬露比/Ruby the Hero Dog
◎片  名 Rescued by Ruby
◎年  代 2022
◎产  地 美国
◎类  别 剧情/儿童
◎语  言 英语
◎上映日期 2022-03-17(美国)
◎IMDb评分  7.2/10 from 3432 users
◎IMDb链接  https://www.imdb.com/title/tt11278476/
◎豆瓣评分 7.3/10 from 686 users
◎豆瓣链接 https://douban.com/subject/35377090/
◎导  演 凯特·西亚 Katt Shea
◎编  剧 凯伦·詹森 Karen Janszen
◎主  演 格兰特·古斯汀 Grant Gustin
◎简  介

  州警察丹(格兰特·古斯汀饰)梦想加入 K-9 搜救队,却苦于得不到机会。收容所犬露比梦想有一个家,却看不到希望。当命运让丹和露比相遇,一人一犬之间的深厚羁绊将帮助这对搭档应对迄今为止最艰巨的挑战。根据真实故事改编。

视频信息

General
Unique ID                   : 34492854604139126215093619094787002428 (0x19F315081B5A52C6393929DA8BB5103C)
Complete name               : E:\DSfile\Rescued.by.Ruby.2022.1080p.NF.WEB-DL.DDP5.1.Atmos.H.264-CTRLWEB.mkv
Format                      : Matroska
Format version              : Version 4
File size                   : 3.80 GiB
Duration                    : 1 h 33 min
Overall bit rate mode       : Variable
Overall bit rate            : 5 811 kb/s
Encoded date                : UTC 2022-03-24 05:34:46
Writing application         : mkvmerge v65.0.0 ('Too Much') 64-bit
Writing library             : libebml v1.4.2 + libmatroska v1.6.4

Video
ID                          : 1
Format                      : AVC
Format/Info                 : Advanced Video Codec
Format profile              : High@L4
Format settings             : CABAC / 4 Ref Frames
Format settings, CABAC      : Yes
Format settings, Reference  : 4 frames
Codec ID                    : V_MPEG4/ISO/AVC
Duration                    : 1 h 33 min
Bit rate mode               : Variable
Bit rate                    : 3 766 kb/s
Maximum bit rate            : 20.0 Mb/s
Width                       : 1 920 pixels
Height                      : 1 080 pixels
Display aspect ratio        : 16:9
Frame rate mode             : Constant
Frame rate                  : 23.976 (24000/1001) FPS
Color space                 : YUV
Chroma subsampling          : 4:2:0
Bit depth                   : 8 bits
Scan type                   : Progressive
Bits/(Pixel*Frame)          : 0.076
Stream size                 : 2.46 GiB (65%)
Writing library             : x264 core 148 r2727 7d026e8
Encoding settings           : cabac=1 / ref=4 / deblock=1:0:0 / analyse=0x3:0x111 / me=umh / subme=10 / psy=1 / psy_rd=1.00:0.00 / mixed_ref=1 / me_range=120 / chroma_me=1 / trellis=2 / 8x8dct=1 / cqm=0 / deadzone=21,11 / fast_pskip=1 / chroma_qp_offset=-2 / threads=8 / lookahead_threads=2 / sliced_threads=0 / nr=0 / decimate=1 / interlaced=0 / bluray_compat=0 / stitchable=1 / constrained_intra=0 / bframes=16 / b_pyramid=2 / b_adapt=2 / b_bias=0 / direct=3 / weightb=1 / open_gop=0 / weightp=2 / keyint=240 / keyint_min=121 / scenecut=0 / intra_refresh=0 / rc_lookahead=240 / rc=crf / mbtree=1 / crf=18.0 / qcomp=0.50 / qpmin=6 / qpmax=51 / qpstep=4 / vbv_maxrate=20000 / vbv_bufsize=25000 / crf_max=0.0 / nal_hrd=vbr / filler=0 / ip_ratio=1.40 / aq=1:0.80
Language                    : English
Default                     : Yes
Forced                      : No

Audio #1
ID                          : 2
Format                      : E-AC-3 JOC
Format/Info                 : Enhanced AC-3 with Joint Object Coding
Commercial name             : Dolby Digital Plus with Dolby Atmos
Codec ID                    : A_EAC3
Duration                    : 1 h 33 min
Bit rate mode               : Constant
Bit rate                    : 768 kb/s
Channel(s)                  : 6 channels
Channel layout              : L R C LFE Ls Rs
Sampling rate               : 48.0 kHz
Frame rate                  : 31.250 FPS (1536 SPF)
Compression mode            : Lossy
Stream size                 : 514 MiB (13%)
Language                    : English
Service kind                : Complete Main
Default                     : Yes
Forced                      : No
Complexity index            : 16
Number of dynamic objects   : 15
Bed channel count           : 1 channel
Bed channel configuration   : LFE

Audio #2
ID                          : 3
Format                      : E-AC-3
Format/Info                 : Enhanced AC-3
Commercial name             : Dolby Digital Plus
Codec ID                    : A_EAC3
Duration                    : 1 h 33 min
Bit rate mode               : Constant
Bit rate                    : 640 kb/s
Channel(s)                  : 6 channels
Channel layout              : L R C LFE Ls Rs
Sampling rate               : 48.0 kHz
Frame rate                  : 31.250 FPS (1536 SPF)
Compression mode            : Lossy
Stream size                 : 429 MiB (11%)
Language                    : Chinese
Service kind                : Complete Main
Default                     : No
Forced                      : No

Audio #3
ID                          : 4
Format                      : E-AC-3
Format/Info                 : Enhanced AC-3
Commercial name             : Dolby Digital Plus
Codec ID                    : A_EAC3
Duration                    : 1 h 33 min
Bit rate mode               : Constant
Bit rate                    : 640 kb/s
Channel(s)                  : 6 channels
Channel layout              : L R C LFE Ls Rs
Sampling rate               : 48.0 kHz
Frame rate                  : 31.250 FPS (1536 SPF)
Compression mode            : Lossy
Stream size                 : 429 MiB (11%)
Language                    : Chinese
Service kind                : Complete Main
Default                     : No
Forced                      : No

Text #1
ID                          : 5
Format                      : UTF-8
Codec ID                    : S_TEXT/UTF8
Codec ID/Info               : UTF-8 Plain Text
Duration                    : 1 h 28 min
Bit rate                    : 63 b/s
Count of elements           : 1541
Stream size                 : 41.3 KiB (0%)
Title                       : SDH
Language                    : English
Default                     : No
Forced                      : No

Text #2
ID                          : 6
Format                      : UTF-8
Codec ID                    : S_TEXT/UTF8
Codec ID/Info               : UTF-8 Plain Text
Duration                    : 1 h 29 min
Bit rate                    : 44 b/s
Count of elements           : 1117
Stream size                 : 29.5 KiB (0%)
Language                    : German
Default                     : No
Forced                      : No

Text #3
ID                          : 7
Format                      : UTF-8
Codec ID                    : S_TEXT/UTF8
Codec ID/Info               : UTF-8 Plain Text
Duration                    : 1 h 29 min
Bit rate                    : 43 b/s
Count of elements           : 1093
Stream size                 : 28.6 KiB (0%)
Language                    : French
Default                     : No
Forced                      : No

Text #4
ID                          : 8
Format                      : UTF-8
Codec ID                    : S_TEXT/UTF8
Codec ID/Info               : UTF-8 Plain Text
Duration                    : 1 h 29 min
Bit rate                    : 75 b/s
Count of elements           : 1200
Stream size                 : 49.4 KiB (0%)
Language                    : Russian
Default                     : No
Forced                      : No

Text #5
ID                          : 9
Format                      : UTF-8
Codec ID                    : S_TEXT/UTF8
Codec ID/Info               : UTF-8 Plain Text
Duration                    : 1 h 29 min
Bit rate                    : 71 b/s
Count of elements           : 1199
Stream size                 : 47.3 KiB (0%)
Language                    : Ukrainian
Default                     : No
Forced                      : No

Text #6
ID                          : 10
Format                      : UTF-8
Codec ID                    : S_TEXT/UTF8
Codec ID/Info               : UTF-8 Plain Text
Duration                    : 1 h 29 min
Bit rate                    : 1 b/s
Count of elements           : 25
Stream size                 : 964 Bytes (0%)
Title                       : Simplified (Forced)
Language                    : Chinese
Default                     : No
Forced                      : Yes

Text #7
ID                          : 11
Format                      : UTF-8
Codec ID                    : S_TEXT/UTF8
Codec ID/Info               : UTF-8 Plain Text
Duration                    : 1 h 29 min
Bit rate                    : 52 b/s
Count of elements           : 1183
Stream size                 : 34.4 KiB (0%)
Title                       : Simplified
Language                    : Chinese
Default                     : No
Forced                      : No

视频截图

下载地址

义犬救主[中文字幕].Rescued.by.Ruby.2022.1080p.NF.WEB-DL.DDP5.1.Atmos.H.264-CTRLWEB 3.80GB:magnet:?xt=urn:btih:062BA985F33BC7FEA41D4C329905ADD15BE1B75E

义犬救主[国语配音+中文字幕].Rescued.by.Ruby.2022.1080p.Netflix.WEB-DL.H264.DDP5.1-HDBWEB 3.47GB:magnet:?xt=urn:btih:FA95567716B428D8EB8FBFB075620292D6EE6262

义犬救主[国语配音+中文字幕].Rescued.by.Ruby.2022.1080p.WEB-DL.H264.DDP5.1-NewWEB 3.54GGB:magnet:?xt=urn:btih:BDFAE67B8DACDABF92BC43443C4FB6C1E75C9FF2

[义犬救主]Rescued.by.Ruby.2022.1080p.NF.WEBrip.x265.DDP5.1.Atmos.yusuble [简英特效硬字幕] 2.46GB:magnet:?xt=urn:btih:CE0FD49C7A4BEB855E70B6BADA80CFEC0D02C912

留下评论

LightDark
LightDark