[2022大陆剧情]我们的冬奥[国语配音/中文字幕][WEB-MKV-2016P(4K)]

%title插图%num

◎译  名 我们的冬奥 / 我和我的冬奥 / Me and My Winter Games
◎年  代 2022
◎产  地 中国大陆
◎类  别 剧情 / 动画
◎语  言 汉语普通话
◎上映日期 2022-02-19(中国大陆)
◎IMDb链接 https://www.imdb.com/title/tt18080516/
◎豆瓣链接 https://movie.douban.com/subject/35517371/
◎片  长 90分钟
◎导  演 林永长 Yongchang Lin (id:1352577)
      李豪凌 Haoling Li (id:1343518)
      庄昊 Hao Zhuang (id:1464940)
      曲强 Qiang Qu (id:1464941)
      钟鸣 Ming Zhong (id:1465451)
      张喆 Zhe Zhang (id:1465453)
      王利文 Liwen Wang (id:1465454)
◎编  剧 徐芸 Yun Xu (id:1336906)
      王刚 Gang Wang (id:1465455)
      张杰 Jie Zhang (id:1465458)
      徐碧君 Bijun Xu (id:1465459)
      徐博 Bo Xu (id:1465460)
      韩飞翼 Feiyi Han (id:1465461)
      谢鹏 Peng Xie (id:1465462)
      潘晓璇 Xiaoxuan Pan (id:1465463)
◎演  员 申世佑 Shiyou Shen (id:1465198)
      刘思奇 Siqi Liu (id:1336939)
      张茗 Ming Zhang (id:1410984)
      贾晨露 Chenlu Jia (id:1448197)
      杨凝 Ning Yang (id:1390171)
      宝木中阳 Ming Song (id:1334350)
      姜广涛 Guangtao Jiang (id:1317670)
      山新 Shuang Wang (id:1334349)
      徐春妮 Chunni Xu (id:1356929)
      张鹂 Li Zhang (id:1465199)
      李立宏 Lihong Li (id:1320458)
      王凯 Kai Wang (id:1355495)
      刘炫锐 Xuanrui Liu (id:1444359)
      潘延 Yan Pan (id:1317642)
      符冲 Chong Fu (id:1321914)
      崔杰 Jie Cui (id:1313517)
      陈兆雄 Zhaoxiong Chen (id:1443640)
      王诤 Zheng Wang (id:1440101)
      王裕仁 Yuren Wang (id:1415982)

◎简  介
  冰墩墩和雪容融在去参加奥运村的开村典礼时发生了一系列奇妙故事。小光头强与小熊大熊二一起帮助大家从暴风雪中脱险;九月偶然“捡到”冰墩墩,将其送回的同时收获完美假期;小虎妞在玩具的鼓励下勇敢面对挑战;大圣借“冰器”时遇到图图一起参加天宫冰雪大会。从孙悟空到非人哉,片中集合30多位知名IP动画角色热血集结,唤醒五代人的童年回忆。
 冰墩墩雪容融领衔主演,冬奥会唯一授权动画电影,打造开年最有意义的动画电影!

视频信息

General
Unique ID                   : 182916005319682470934388371388152043371 (0x899C57589307D0A88D269A22FA52576B)
Complete name               : D:\迅雷下载\【更多高清电影访问 www.BBQDDQ.com】我们的冬奥[国语配音+中文字幕].Me.and.My.Winter.Games.2022.WEB-DL.4K.H265.DDP.5.1.&.AAC.2Audios-HOMEWEB\Me.and.My.Winter.Games.2022.WEB-DL.4K.H265.DDP.5.1.&.AAC.2Audios-HOMEWEB.mkv
Format                      : Matroska
Format version              : Version 4
File size                   : 2.37 GiB
Duration                    : 1 h 29 min
Overall bit rate            : 3 785 kb/s
Encoded date                : UTC 2022-04-23 03:52:35
Writing application         : mkvmerge v63.0.0 ('Everything') 64-bit
Writing library             : libebml v1.4.2 + libmatroska v1.6.4

Video
ID                          : 1
Format                      : HEVC
Format/Info                 : High Efficiency Video Coding
Format profile              : Main 10@L5@Main
Codec ID                    : V_MPEGH/ISO/HEVC
Duration                    : 1 h 29 min
Bit rate                    : 3 337 kb/s
Width                       : 3 840 pixels
Height                      : 1 608 pixels
Display aspect ratio        : 2.40:1
Frame rate mode             : Constant
Frame rate                  : 24.000 FPS
Color space                 : YUV
Chroma subsampling          : 4:2:0
Bit depth                   : 10 bits
Bits/(Pixel*Frame)          : 0.023
Stream size                 : 2.09 GiB (88%)
Default                     : Yes
Forced                      : No
Color range                 : Limited
Color primaries             : BT.709
Transfer characteristics    : BT.709
Matrix coefficients         : BT.709

Audio #1
ID                          : 2
Format                      : E-AC-3
Format/Info                 : Enhanced AC-3
Commercial name             : Dolby Digital Plus
Codec ID                    : A_EAC3
Duration                    : 1 h 29 min
Bit rate mode               : Constant
Bit rate                    : 256 kb/s
Channel(s)                  : 6 channels
Channel layout              : L R C LFE Ls Rs
Sampling rate               : 48.0 kHz
Frame rate                  : 31.250 FPS (1536 SPF)
Compression mode            : Lossy
Stream size                 : 164 MiB (7%)
Language                    : Chinese
Service kind                : Complete Main
Default                     : Yes
Forced                      : No

Audio #2
ID                          : 3
Format                      : AAC LC
Format/Info                 : Advanced Audio Codec Low Complexity
Codec ID                    : A_AAC-2
Duration                    : 1 h 29 min
Bit rate                    : 192 kb/s
Channel(s)                  : 2 channels
Channel layout              : L R
Sampling rate               : 44.1 kHz
Frame rate                  : 43.066 FPS (1024 SPF)
Compression mode            : Lossy
Stream size                 : 122 MiB (5%)
Language                    : Chinese
Default                     : Yes
Forced                      : No

视频截图

下载地址

我们的冬奥[国语配音+中文字幕].Me.and.My.Winter.Games.2022.WEB-DL.4K.H265.DDP.5.1.&.AAC.2Audios-HOMEWEB 2.37GB:magnet:?xt=urn:btih:E161149CDB087071A370018DD7BBC553C95C4897

我们的冬奥[国语配音+中文字幕].Me.and.My.Winter.Games.2022.2160p.WEB-DL.H265.DDP5.1-HDBWEB 2.23GB:magnet:?xt=urn:btih:6293967CC077C1A66E25104E031B6E63389C999A

我m的d奥.2022.HD1080p.国语中字.mp4 798.4MB:magnet:?xt=urn:btih:5DD56AC96978CEDD6326FF6F246359D22BF2A61F

2022北京冬奥会开幕式 4K 19.06GB:magnet:?xt=urn:btih:25E9A216B8FE59CC4BEFEB84C6A20BB499AF302D

2022年北京冬奥会闭幕_20220 6.74GB:magnet:?xt=urn:btih:2645D8232752348D0BB04FBB458C3504A5253E26&dn=2022年北京冬奥会闭幕_20220

2022年北京冬奥会闭幕纪念日特别节目-让世界充满爱(CCTV5HD)_2022 5.88GB:magnet:?xt=urn:btih:E5CFCC15F53CACCA065D51F927BE5F88E599E665&dn=2022年北京冬奥会闭幕纪念日特别节目-让世界充满爱(CCTV5HD)_20220

留下评论

LightDark
LightDark