[2022美国惊悚]The Texas Chainsaw Massacre 德州电锯杀人狂[英语官译多国字幕][WEB-MKV-1080P]

%title插图%num

◎译  名 德州电锯杀人狂 / 德州电锯杀人狂2022 / 德州电锯杀人狂重启版 / 新德州电锯杀人狂
◎片  名 The Texas Chainsaw Massacre
◎年  代 2022
◎产  地 美国
◎类  别 惊悚 / 恐怖
◎语  言 英语
◎上映日期 2022-02-18(美国网络)
◎IMDb链接 https://www.imdb.com/title/tt11755740/
◎豆瓣评分  5.6/10 from 1361 users
◎豆瓣链接 https://movie.douban.com/subject/34967407/
◎导  演 大卫·布鲁·加西亚 David Blue Garcia (id:1432823)
◎编  剧 克里斯·托马斯·戴弗林 Chris Thomas Devlin (id:1446132)
◎演  员 马克·伯恩汉姆 Mark Burnham (id:1400941)
      艾丽丝·克里奇 Alice Krige (id:1055814)
      ·哈德森 Nell Hudson (id:1382317)
      艾尔西·费舍尔 Elsie Fisher (id:1313065)
      莫·邓福德 Moe Dunford (id:1374720)
      欧文·弗热瑞 Olwen Fouéré (id:1355887)
      莎拉·亚金 Sarah Yarkin (id:1392141)
      威廉·霍普 William Hope (id:1323341)
      雅各布·拉提摩尔 Jacob Latimore (id:1273668)
      约翰·拉尔奎特 John Larroquette (id:1036490)
      山姆·道格拉斯 Sam Douglas (id:1321473)
      乔林·科伊 Jolyon Coy (id:1234761)

◎简  介 

  梅洛蒂(莎拉·亚金饰演)和她的妹妹莱拉(艾尔西·费舍尔饰)与朋友但丁(雅各布·拉铁摩尔饰)和露丝(·哈德森饰)一同前往偏远的德克萨斯州哈洛镇,开始一项理想主义的新商业冒险。但他们的梦想很快就演变成了一场噩梦,因为他们不小心破坏了人皮杀人魔的家,这个疯狂连环杀手的血腥事迹,让当地人至今心有余悸,其中包括莎莉·哈迪斯(欧文·弗热瑞饰),作为人皮杀人魔 1973 年大屠杀中的唯一幸存者,她决心寻求复仇。

视频信息

General
Unique ID                   : 176561230663408786792784152693389807256 (0x84D474C3F81AE4A446A4F8E0A7CA4E98)
Complete name               : F:\Texas.Chainsaw.Massacre.2022.1080p.NF.WEBRip.DDP5.1.Atmos.x264-TEPES\Texas.Chainsaw.Massacre.2022.1080p.NF.WEB-DL.DDP5.1.Atmos.x264-TEPES.mkv
Format                      : Matroska
Format version              : Version 4
File size                   : 4.52 GiB
Duration                    : 1 h 23 min
Overall bit rate mode       : Variable
Overall bit rate            : 7 784 kb/s
Writing application         : mkvmerge v65.0.0 ('Too Much') 64-bit
Writing library             : libebml v1.4.2 + libmatroska v1.6.4

Video
ID                          : 1
Format                      : AVC
Format/Info                 : Advanced Video Codec
Format profile              : High@L4
Format settings             : CABAC / 4 Ref Frames
Format settings, CABAC      : Yes
Format settings, Reference  : 4 frames
Codec ID                    : V_MPEG4/ISO/AVC
Duration                    : 1 h 23 min
Bit rate mode               : Variable
Bit rate                    : 7 011 kb/s
Maximum bit rate            : 20.0 Mb/s
Width                       : 1 920 pixels
Height                      : 1 080 pixels
Display aspect ratio        : 16:9
Frame rate mode             : Constant
Frame rate                  : 24.000 FPS
Color space                 : YUV
Chroma subsampling          : 4:2:0
Bit depth                   : 8 bits
Scan type                   : Progressive
Bits/(Pixel*Frame)          : 0.141
Stream size                 : 4.07 GiB (90%)
Writing library             : x264 core 148 r2727 7d026e8
Encoding settings           : cabac=1 / ref=4 / deblock=1:0:0 / analyse=0x3:0x111 / me=umh / subme=10 / psy=1 / psy_rd=1.00:0.00 / mixed_ref=1 / me_range=120 / chroma_me=1 / trellis=2 / 8x8dct=1 / cqm=0 / deadzone=21,11 / fast_pskip=1 / chroma_qp_offset=-2 / threads=8 / lookahead_threads=2 / sliced_threads=0 / nr=0 / decimate=1 / interlaced=0 / bluray_compat=0 / stitchable=1 / constrained_intra=0 / bframes=16 / b_pyramid=2 / b_adapt=2 / b_bias=0 / direct=3 / weightb=1 / open_gop=0 / weightp=2 / keyint=240 / keyint_min=121 / scenecut=0 / intra_refresh=0 / rc_lookahead=240 / rc=crf / mbtree=1 / crf=17.0 / qcomp=0.50 / qpmin=6 / qpmax=51 / qpstep=4 / vbv_maxrate=20000 / vbv_bufsize=25000 / crf_max=0.0 / nal_hrd=vbr / filler=0 / ip_ratio=1.40 / aq=1:0.80
Default                     : Yes
Forced                      : No

Audio
ID                          : 2
Format                      : E-AC-3 JOC
Format/Info                 : Enhanced AC-3 with Joint Object Coding
Commercial name             : Dolby Digital Plus with Dolby Atmos
Codec ID                    : A_EAC3
Duration                    : 1 h 23 min
Bit rate mode               : Constant
Bit rate                    : 768 kb/s
Channel(s)                  : 6 channels
Channel layout              : L R C LFE Ls Rs
Sampling rate               : 48.0 kHz
Frame rate                  : 31.250 FPS (1536 SPF)
Compression mode            : Lossy
Stream size                 : 456 MiB (10%)
Language                    : English
Service kind                : Complete Main
Default                     : Yes
Forced                      : No
Complexity index            : 16
Number of dynamic objects   : 15
Bed channel count           : 1 channel
Bed channel configuration   : LFE

Text #1
ID                          : 3
Format                      : UTF-8
Codec ID                    : S_TEXT/UTF8
Codec ID/Info               : UTF-8 Plain Text
Duration                    : 1 h 12 min
Bit rate                    : 31 b/s
Count of elements           : 602
Stream size                 : 17.0 KiB (0%)
Language                    : English
Default                     : No
Forced                      : No

Text #2
ID                          : 4
Format                      : UTF-8
Codec ID                    : S_TEXT/UTF8
Codec ID/Info               : UTF-8 Plain Text
Duration                    : 1 h 20 min
Bit rate                    : 42 b/s
Count of elements           : 972
Stream size                 : 24.9 KiB (0%)
Title                       : SDH
Language                    : English
Default                     : No
Forced                      : No

Text #3
ID                          : 5
Format                      : UTF-8
Codec ID                    : S_TEXT/UTF8
Codec ID/Info               : UTF-8 Plain Text
Duration                    : 1 h 20 min
Bit rate                    : 48 b/s
Count of elements           : 595
Stream size                 : 28.4 KiB (0%)
Language                    : Arabic
Default                     : No
Forced                      : No

Text #4
ID                          : 6
Format                      : UTF-8
Codec ID                    : S_TEXT/UTF8
Codec ID/Info               : UTF-8 Plain Text
Duration                    : 1 h 20 min
Bit rate                    : 25 b/s
Count of elements           : 578
Stream size                 : 15.1 KiB (0%)
Language                    : Czech
Default                     : No
Forced                      : No

Text #5
ID                          : 7
Format                      : UTF-8
Codec ID                    : S_TEXT/UTF8
Codec ID/Info               : UTF-8 Plain Text
Duration                    : 1 h 20 min
Bit rate                    : 25 b/s
Count of elements           : 562
Stream size                 : 14.8 KiB (0%)
Language                    : Danish
Default                     : No
Forced                      : No

Text #6
ID                          : 8
Format                      : UTF-8
Codec ID                    : S_TEXT/UTF8
Codec ID/Info               : UTF-8 Plain Text
Duration                    : 1 h 20 min
Bit rate                    : 27 b/s
Count of elements           : 576
Stream size                 : 16.3 KiB (0%)
Language                    : German
Default                     : No
Forced                      : No

Text #7
ID                          : 9
Format                      : UTF-8
Codec ID                    : S_TEXT/UTF8
Codec ID/Info               : UTF-8 Plain Text
Duration                    : 1 h 20 min
Bit rate                    : 45 b/s
Count of elements           : 563
Stream size                 : 26.8 KiB (0%)
Language                    : Greek
Default                     : No
Forced                      : No

Text #8
ID                          : 10
Format                      : UTF-8
Codec ID                    : S_TEXT/UTF8
Codec ID/Info               : UTF-8 Plain Text
Duration                    : 1 h 20 min
Bit rate                    : 26 b/s
Count of elements           : 614
Stream size                 : 15.8 KiB (0%)
Language                    : Spanish
Default                     : No
Forced                      : No

Text #9
ID                          : 11
Format                      : UTF-8
Codec ID                    : S_TEXT/UTF8
Codec ID/Info               : UTF-8 Plain Text
Duration                    : 1 h 20 min
Bit rate                    : 26 b/s
Count of elements           : 562
Stream size                 : 15.8 KiB (0%)
Title                       : European
Language                    : Spanish
Default                     : No
Forced                      : No

Text #10
ID                          : 12
Format                      : UTF-8
Codec ID                    : S_TEXT/UTF8
Codec ID/Info               : UTF-8 Plain Text
Duration                    : 1 h 20 min
Bit rate                    : 24 b/s
Count of elements           : 502
Stream size                 : 14.4 KiB (0%)
Language                    : Finnish
Default                     : No
Forced                      : No

Text #11
ID                          : 13
Format                      : UTF-8
Codec ID                    : S_TEXT/UTF8
Codec ID/Info               : UTF-8 Plain Text
Duration                    : 1 h 20 min
Bit rate                    : 25 b/s
Count of elements           : 584
Stream size                 : 15.2 KiB (0%)
Language                    : French
Default                     : No
Forced                      : No

Text #12
ID                          : 14
Format                      : UTF-8
Codec ID                    : S_TEXT/UTF8
Codec ID/Info               : UTF-8 Plain Text
Duration                    : 1 h 20 min
Bit rate                    : 46 b/s
Count of elements           : 605
Stream size                 : 27.0 KiB (0%)
Language                    : Hebrew
Default                     : No
Forced                      : No

Text #13
ID                          : 15
Format                      : UTF-8
Codec ID                    : S_TEXT/UTF8
Codec ID/Info               : UTF-8 Plain Text
Duration                    : 1 h 20 min
Bit rate                    : 22 b/s
Count of elements           : 580
Stream size                 : 13.3 KiB (0%)
Language                    : Croatian
Default                     : No
Forced                      : No

Text #14
ID                          : 16
Format                      : UTF-8
Codec ID                    : S_TEXT/UTF8
Codec ID/Info               : UTF-8 Plain Text
Duration                    : 1 h 20 min
Bit rate                    : 26 b/s
Count of elements           : 564
Stream size                 : 15.8 KiB (0%)
Language                    : Hungarian
Default                     : No
Forced                      : No

Text #15
ID                          : 17
Format                      : UTF-8
Codec ID                    : S_TEXT/UTF8
Codec ID/Info               : UTF-8 Plain Text
Duration                    : 1 h 20 min
Bit rate                    : 27 b/s
Count of elements           : 589
Stream size                 : 15.9 KiB (0%)
Language                    : Indonesian
Default                     : No
Forced                      : No

Text #16
ID                          : 18
Format                      : UTF-8
Codec ID                    : S_TEXT/UTF8
Codec ID/Info               : UTF-8 Plain Text
Duration                    : 1 h 20 min
Bit rate                    : 28 b/s
Count of elements           : 596
Stream size                 : 16.8 KiB (0%)
Language                    : Italian
Default                     : No
Forced                      : No

Text #17
ID                          : 19
Format                      : UTF-8
Codec ID                    : S_TEXT/UTF8
Codec ID/Info               : UTF-8 Plain Text
Duration                    : 1 h 20 min
Bit rate                    : 27 b/s
Count of elements           : 633
Stream size                 : 16.3 KiB (0%)
Language                    : Japanese
Default                     : No
Forced                      : No

Text #18
ID                          : 20
Format                      : UTF-8
Codec ID                    : S_TEXT/UTF8
Codec ID/Info               : UTF-8 Plain Text
Duration                    : 1 h 20 min
Bit rate                    : 34 b/s
Count of elements           : 620
Stream size                 : 20.4 KiB (0%)
Language                    : Korean
Default                     : No
Forced                      : No

Text #19
ID                          : 21
Format                      : UTF-8
Codec ID                    : S_TEXT/UTF8
Codec ID/Info               : UTF-8 Plain Text
Duration                    : 1 h 20 min
Bit rate                    : 26 b/s
Count of elements           : 602
Stream size                 : 15.7 KiB (0%)
Language                    : Malay
Default                     : No
Forced                      : No

Text #20
ID                          : 22
Format                      : UTF-8
Codec ID                    : S_TEXT/UTF8
Codec ID/Info               : UTF-8 Plain Text
Duration                    : 1 h 20 min
Bit rate                    : 25 b/s
Count of elements           : 576
Stream size                 : 14.8 KiB (0%)
Language                    : Norwegian Bokmal
Default                     : No
Forced                      : No

Text #21
ID                          : 23
Format                      : UTF-8
Codec ID                    : S_TEXT/UTF8
Codec ID/Info               : UTF-8 Plain Text
Duration                    : 1 h 20 min
Bit rate                    : 24 b/s
Count of elements           : 554
Stream size                 : 14.2 KiB (0%)
Language                    : Dutch
Default                     : No
Forced                      : No

Text #22
ID                          : 24
Format                      : UTF-8
Codec ID                    : S_TEXT/UTF8
Codec ID/Info               : UTF-8 Plain Text
Duration                    : 1 h 20 min
Bit rate                    : 25 b/s
Count of elements           : 611
Stream size                 : 15.1 KiB (0%)
Language                    : Polish
Default                     : No
Forced                      : No

Text #23
ID                          : 25
Format                      : UTF-8
Codec ID                    : S_TEXT/UTF8
Codec ID/Info               : UTF-8 Plain Text
Duration                    : 1 h 13 min
Bit rate                    : 28 b/s
Count of elements           : 549
Stream size                 : 15.2 KiB (0%)
Language                    : Portuguese
Default                     : No
Forced                      : No

Text #24
ID                          : 26
Format                      : UTF-8
Codec ID                    : S_TEXT/UTF8
Codec ID/Info               : UTF-8 Plain Text
Duration                    : 1 h 20 min
Bit rate                    : 27 b/s
Count of elements           : 592
Stream size                 : 16.3 KiB (0%)
Title                       : Brazilian
Language                    : Portuguese
Default                     : No
Forced                      : No

Text #25
ID                          : 27
Format                      : UTF-8
Codec ID                    : S_TEXT/UTF8
Codec ID/Info               : UTF-8 Plain Text
Duration                    : 1 h 20 min
Bit rate                    : 30 b/s
Count of elements           : 594
Stream size                 : 18.1 KiB (0%)
Language                    : Romanian
Default                     : No
Forced                      : No

Text #26
ID                          : 28
Format                      : UTF-8
Codec ID                    : S_TEXT/UTF8
Codec ID/Info               : UTF-8 Plain Text
Duration                    : 1 h 20 min
Bit rate                    : 44 b/s
Count of elements           : 618
Stream size                 : 26.2 KiB (0%)
Language                    : Russian
Default                     : No
Forced                      : No

Text #27
ID                          : 29
Format                      : UTF-8
Codec ID                    : S_TEXT/UTF8
Codec ID/Info               : UTF-8 Plain Text
Duration                    : 1 h 20 min
Bit rate                    : 25 b/s
Count of elements           : 543
Stream size                 : 15.2 KiB (0%)
Language                    : Swedish
Default                     : No
Forced                      : No

Text #28
ID                          : 30
Format                      : UTF-8
Codec ID                    : S_TEXT/UTF8
Codec ID/Info               : UTF-8 Plain Text
Duration                    : 1 h 20 min
Bit rate                    : 71 b/s
Count of elements           : 601
Stream size                 : 41.8 KiB (0%)
Language                    : Thai
Default                     : No
Forced                      : No

Text #29
ID                          : 31
Format                      : UTF-8
Codec ID                    : S_TEXT/UTF8
Codec ID/Info               : UTF-8 Plain Text
Duration                    : 1 h 20 min
Bit rate                    : 27 b/s
Count of elements           : 588
Stream size                 : 16.3 KiB (0%)
Language                    : Turkish
Default                     : No
Forced                      : No

Text #30
ID                          : 32
Format                      : UTF-8
Codec ID                    : S_TEXT/UTF8
Codec ID/Info               : UTF-8 Plain Text
Duration                    : 1 h 20 min
Bit rate                    : 42 b/s
Count of elements           : 583
Stream size                 : 24.9 KiB (0%)
Language                    : Ukrainian
Default                     : No
Forced                      : No

Text #31
ID                          : 33
Format                      : UTF-8
Codec ID                    : S_TEXT/UTF8
Codec ID/Info               : UTF-8 Plain Text
Duration                    : 1 h 20 min
Bit rate                    : 40 b/s
Count of elements           : 527
Stream size                 : 24.1 KiB (0%)
Language                    : Vietnamese
Default                     : No
Forced                      : No

Text #32
ID                          : 34
Format                      : UTF-8
Codec ID                    : S_TEXT/UTF8
Codec ID/Info               : UTF-8 Plain Text
Duration                    : 1 h 20 min
Bit rate                    : 31 b/s
Count of elements           : 599
Stream size                 : 18.2 KiB (0%)
Title                       : Simplified
Language                    : Chinese
Default                     : No
Forced                      : No

Text #33
ID                          : 35
Format                      : UTF-8
Codec ID                    : S_TEXT/UTF8
Codec ID/Info               : UTF-8 Plain Text
Duration                    : 1 h 20 min
Bit rate                    : 29 b/s
Count of elements           : 606
Stream size                 : 17.2 KiB (0%)
Title                       : Traditional
Language                    : Chinese
Default                     : No
Forced                      : No

Menu
01:21:07.000                : en:Credits

视频截图

下载地址

Texas.Chainsaw.Massacre.2022.1080p.NF.WEBRip.DDP5.1.Atmos.x264-TEPES 4.52GB:magnet:?xt=urn:btih:FD4BD4DEBF44FBEB8E978D0B1C7F5ED5156FDC62

The.Texas.Chainsaw.Massacre.2022.WEB-DL.1080p.X264 2GB:magnet:?xt=urn:btih:3E3253E2CF5BD97C2DB92518F36092D06D9A48D2

人皮脸/德州电锯杀人狂前传 Leatherface 2017:

德州电锯杀人狂前传.Leatherface.2017.HD1080P.x264.精校中文字幕.btrenren 2.68GB:magnet:?xt=urn:btih:0FFB3908D37BF2AB8C89160B5361317C1EE53E36&dn=%E5%BE%B7%E5%B7%9E%E7%94%B5%E9%94%AF%E6%9D%80%E4%BA%BA%E7%8B%82%E5%89%8D%E4%BC%A0.Leatherface.2017.HD1080P.x264.%E7%B2%BE%E6%A0%A1%E4%B8%AD%E6%96%87%E5%AD%97%E5%B9%95.btrenren

[人皮脸][美国.恐怖][美版].Leatherface.2017.BD.1080P.x264.AAC5.1.English.内封特效中英双字-FFansBD 5.91GB:magnet:?xt=urn:btih:A21AEE50E807FFE4BD362CAB47849500CB9E7E98

人皮脸.2017.BD1080p.中英双字.mp4 2.35GB:magnet:?xt=urn:btih:2D88090E0EC4908E51A14B90F0AB134F613544F1

德州电锯杀人狂3D Texas.Chainsaw 2013:

德州电锯杀人狂3D[中文字幕].Texas.Chainsaw.2013.1080p.NF.WEB-DL.DDP5.1.x264-10002@BBQDDQ.COM 3.83GB:magnet:?xt=urn:btih:D0A161E68017A65F61840B7282DA553C0B8F4C43&dn=%E3%80%90%E6%9B%B4%E5%A4%9A%E9%AB%98%E6%B8%85%E7%94%B5%E5%BD%B1%E8%AE%BF%E9%97%AE%20www.BBQDDQ.com%E3%80%91%E5%BE%B7%E5%B7%9E%E7%94%B5%E9%94%AF%E6%9D%80%E4%BA%BA%E7%8B%823D%5B%E4%B8%AD%E6%96%87%E5%AD%97%E5%B9%95%5D.Texas.Chainsaw.2013.1080p.NF.WEB-DL.DDP5.1.x264-10002%40BBQDDQ.COM%203.83GB

德州电锯杀人狂3D.2013.BD1080p.中英字幕.mp4 2.55GB:magnet:?xt=urn:btih:31D56C87AE34127D77115F9CD0296F43273EEC9E

新德州电锯杀人狂.BD.mp4 599.3MB:magnet:?xt=urn:btih:2215BD11AA53F49F7173103EF107BF2A8BA4F47C

德州电锯杀人狂前传 The Texas Chainsaw Massacre The Beginning 2006:

德州电锯杀人狂前传未分级版.The.Texas.Chainsaw.Massacre.The.Beginning.UNRATED.2006.BD1080P.x264.官方中文字幕.btrenren 2.16GB:magnet:?xt=urn:btih:F45CA8109FDB582FBCD7710459220375920319EC&dn=%E5%BE%B7%E5%B7%9E%E7%94%B5%E9%94%AF%E6%9D%80%E4%BA%BA%E7%8B%82%E5%89%8D%E4%BC%A0%E6%9C%AA%E5%88%86%E7%BA%A7%E7%89%88.The.Texas.Chainsaw.Massacre.The.Beginning.UNRATED.2006.BD1080P.x264.%E5%AE%98%E6%96%B9%E4%B8%AD%E6%96%87%E5%AD%97%E5%B9%95.btrenren

德州电锯杀人狂前传.2006.BD1080p.中文字幕.mp4 3.56GB:magnet:?xt=urn:btih:9EB2DB9CF9235BADB9A4CA9AD2CA35EAA2CFA0CE

德州电锯杀人狂.前传.BD.mp4 521.2MB:magnet:?xt=urn:btih:A3DFDD51AC4F7E805E94436569059DF2D645CF3B

德州电锯杀人狂4 The Texas Chainsaw Massacre 2003:

The.Texas.Chainsaw.Massacre.2003.1080p.mp4 519.8MB:magnet:?xt=urn:btih:B88D6C81260D2F632CABFE4B3080B48CDCA27601

德州电锯杀人狂.The.Texas.Chainsaw.Massacre.2003.720p.Bluray.rmvb 1.24GB:magnet:?xt=urn:btih:9D80D559750585AC58266AD3BF1FA958A6ADCC96&dn=%5B2010.12.10%5D%E5%BE%B7%E5%B7%9E%E7%94%B5%E9%94%AF%E6%9D%80%E4%BA%BA%E7%8B%82%5B2003%E5%B9%B4%E7%BE%8E%E5%9B%BD%E6%81%90%E6%80%96%E4%BC%A0%E8%AE%B0%28Bluray%29%5D%EF%BC%88%E5%B8%9D%E5%9B%BD%E5%87%BA%E5%93%81%EF%BC%89

[德州电锯杀人狂].The.Texas.Chainsaw.Massacre.2003.720p.BluRay.x264.AC3-CMCT 2.18GB:magnet:?xt=urn:btih:922B0DBFCBD06637B1324D5413597CE2CB80F158

德州电锯杀人狂3 texas chainsaw massacre the.next generation 1994:

texas.chainsaw.massacre.the.next.generation.1994.mp4 437.8MB:magnet:?xt=urn:btih:6BF1B6554476F1B706FEC35527628033318CC300

德州电锯杀人狂2 Leatherface Texas Chainsaw Massacre 1990:

Leatherface.Texas.Chainsaw.Massacre.1990.mp4 696.7MB:magnet:?xt=urn:btih:F8401E4EB334ABD25272CC20BB33CFEAE979A894

德州电锯杀人狂1 The Texas Chain Saw Massacre 1974:

德州电锯杀人狂1986.mp4 667.1MB:magnet:?xt=urn:btih:E1C81B6435A66EA14B2B5E32C3E5B36E0BB75030

德州电锯杀人狂原版.The.Texas.Chain.Saw.Massacre.1974.720P.BluRay.rmvb 1.1GB:magnet:?xt=urn:btih:E5D16A785D13CAEC9D63A9E228706D6A769AF12F&dn=%E5%BE%B7%E5%B7%9E%E7%94%B5%E9%94%AF%E6%9D%80%E4%BA%BA%E7%8B%821974%E5%B9%B4%E5%8E%9F%E7%89%88%5B720P%5D%5B%E7%BE%8E%E5%9B%BD%E6%81%90%E6%80%96%E6%83%8A%E6%82%9A%5D%EF%BC%88%E5%B8%9D%E5%9B%BD%E5%87%BA%E5%93%81%EF%BC%89

德州电锯杀人狂系列6部 5.93GB:magnet:?xt=urn:btih:05BF76BA3002BC3CB1C9DDB49F08F4A3617D2315

留下评论

LightDark
LightDark