[2021美国科幻][The Book of Boba Fett 波巴·费特之书 第一季][全07集][英语官译多国字幕][WEB-DL-MKV-2160P(4K)]

%title插图%num

◎译  名 波巴·费特之书 / 曼达洛人衍生剧
◎片  名 The Book of Boba Fett
◎年  代 2021
◎产  地 美国
◎类  别 动作 / 科幻 / 冒险
◎语  言 英语
◎上映日期 2021-12-29(美国)
◎IMDb链接 https://www.imdb.com/title/tt13668894/
◎豆瓣评分 8.9/10 (5970人评价)
◎豆瓣链接 https://movie.douban.com/subject/35291777/
◎集  数 7
◎片  长 38-52分钟
◎导  演 罗伯特·罗德里格兹 Robert Rodriguez (id:1019016)
      斯戴芙·格林 Steph Green (id:1307646)
      凯文·坦查隆 Kevin Tancharoen (id:1381009)
      布莱丝·达拉斯·霍华德 Bryce Dallas Howard (id:1027772)
      戴夫·菲洛尼 Dave Filoni (id:1349076)
◎编  剧 乔恩·费儒 Jon Favreau (id:1027164)
      戴夫·菲洛尼 Dave Filoni (id:1349076)
      乔治·卢卡斯 George Lucas (id:1054507)
◎演  员 特穆拉·莫里森 Temuera Morrison (id:1013898)
      温明娜 Ming-Na Wen (id:1041128)
      佩德罗·帕斯卡 Pedro Pascal (id:1329628)
      马克·哈米尔 Mark Hamill (id:1027809)
      马特·贝里 Matt Berry (id:1194203)
      大卫·帕斯奎斯 David Pasquesi (id:1359258)
      罗莎里奥·道森 Rosario Dawson (id:1044717)
      斯蒂芬·鲁特 Stephen Root (id:1041136)
      艾米·塞德丽丝 Amy Sedaris (id:1000167)
      蒂莫西·奥利芬特 Timothy Olyphant (id:1044704)
      詹妮弗·比尔斯 Jennifer Beals (id:1036311)
      丹尼·特雷霍 Danny Trejo (id:1044721)
      格雷厄姆·汉密尔顿 Graham Hamilton (id:1412982)
      罗伯特·罗德里格兹 Robert Rodriguez (id:1019016)
      索菲·撒切尔 Sophie Thatcher (id:1401083)
      乔丹·博尔格 Jordan Bolger (id:1368829)
      菲尔·拉马 Phil LaMarr (id:1007036)
      丹尼尔·洛根 Daniel Logan (id:1115637)
      艾米莉·斯沃洛 Emily Swallow (id:1328585)
      海伦·萨德勒 Helen Sadler (id:1393065)
      Frank Trigg Frank Trigg (id:1202731)
      凯瑞·琼斯 Carey Jones (id:1466679)
      马克斯·洛伊德-琼斯 Max Lloyd-Jones (id:1200780)
      科里·伯顿 Corey Burton (id:1069602)
      李善亨 Paul Sun-Hyung Lee (id:1422947)
      Jeffrey J. Dashnaw Jeffrey J. Dashnaw (id:1088487)
      W·厄尔·布朗 W. Earl Brown (id:1049772)
      斯凯勒·拜布尔 Skyler Bible (id:1405038)
      邢思杰 Alfred Hsing (id:1327402)
      乔·奥斯蒙德 Jo Osmond (id:1234671)
      阿兰·格拉夫 Allan Graf (id:1285262)
      罗伯特·罗德里格兹 Robert Rodriguez (id:1019016)
      路德维格·戈兰松 Ludwig G?ransson (id:1265962)

◎简  介
  《星球大战》衍生剧《曼达洛人》番外,特穆拉·莫里森饰演的赏金猎人波巴·费特、温明娜饰演的Fennec Shand回归。贾巴死后,两人掌控了塔图因的犯罪世界,形势复杂,处处危机。致命饭局之上,波巴深知天下熙熙皆为利来,天下攘攘皆为利往。

◎获奖情况 (共1项)
  第24届美国服装设计工会奖 (2022)
  科幻/奇幻题材剧集最佳服装设计(提名)
   └──肖娜·特普齐克 (id:1452768)

视频信息

General
Unique ID                   : 124611287041787096624043788916646775798 (0x5DBF42CB25069C496052A86800948BF6)
Complete name               : E:\DSfile\The.Book.of.Boba.Fett.S01E01.Chapter.1.2160p.WEB-DL.DDP5.1.Atmos.HDR.H.265-BobarBiriyani.mkv
Format                      : Matroska
Format version              : Version 4
File size                   : 6.00 GiB
Duration                    : 37 min 43 s
Overall bit rate            : 22.8 Mb/s
Writing application         : mkvmerge v64.0.0 ('Willows') 64-bit
Writing library             : libebml v1.4.2 + libmatroska v1.6.4

Video
ID                          : 1
Format                      : HEVC
Format/Info                 : High Efficiency Video Coding
Format profile              : Main 10@L5@Main
Codec ID                    : V_MPEGH/ISO/HEVC
Duration                    : 37 min 43 s
Bit rate                    : 22.0 Mb/s
Width                       : 3 840 pixels
Height                      : 2 160 pixels
Display aspect ratio        : 16:9
Frame rate mode             : Constant
Frame rate                  : 24.000 FPS
Color space                 : YUV
Chroma subsampling          : 4:2:0
Bit depth                   : 10 bits
Bits/(Pixel*Frame)          : 0.111
Stream size                 : 5.80 GiB (97%)
Writing library             : x265 3.5:[Linux][GCC 9.3.0][64 bit] 10bit
Encoding settings           : cpuid=1111039 / frame-threads=1 / numa-pools=16 / wpp / no-pmode / no-pme / no-psnr / no-ssim / log-level=2 / input-csp=1 / input-res=3840x2160 / interlace=0 / total-frames=0 / level-idc=50 / high-tier=0 / uhd-bd=0 / ref=3 / no-allow-non-conformance / repeat-headers / annexb / no-aud / no-hrd / info / hash=0 / no-temporal-layers / no-open-gop / min-keyint=48 / keyint=48 / gop-lookahead=0 / bframes=2 / b-adapt=0 / b-pyramid / bframe-bias=0 / rc-lookahead=48 / lookahead-slices=8 / scenecut=0 / hist-scenecut=0 / radl=0 / no-splice / no-intra-refresh / ctu=32 / min-cu-size=8 / no-rect / no-amp / max-tu-size=16 / tu-inter-depth=2 / tu-intra-depth=2 / limit-tu=0 / rdoq-level=1 / dynamic-rd=0.00 / no-ssim-rd / signhide / no-tskip / nr-intra=0 / nr-inter=0 / no-constrained-intra / no-strong-intra-smoothing / max-merge=3 / limit-refs=1 / no-limit-modes / me=1 / subme=2 / merange=44 / temporal-mvp / no-frame-dup / no-hme / weightp / no-weightb / no-analyze-src-pics / deblock=0:0 / no-sao / no-sao-non-deblock / rd=4 / selective-sao=0 / early-skip / rskip / no-fast-intra / no-tskip-fast / no-cu-lossless / b-intra / no-splitrd-skip / rdpenalty=1 / psy-rd=1.60 / psy-rdoq=5.00 / no-rd-refine / no-lossless / cbqpoffs=0 / crqpoffs=0 / rc=abr / bitrate=23000 / qcomp=0.75 / qpstep=4 / stats-write=0 / stats-read=0 / vbv-maxrate=25000 / vbv-bufsize=25000 / vbv-init=0.9 / ipratio=1.40 / pbratio=1.30 / aq-mode=3 / aq-strength=1.00 / no-cutree / zone-count=0 / no-strict-cbr / qg-size=32 / no-rc-grain / qpmax=69 / qpmin=0 / no-const-vbv / sar=1 / overscan=0 / videoformat=5 / range=0 / colorprim=9 / transfer=16 / colormatrix=9 / chromaloc=0 / display-window=0 / cll=0,0 / min-luma=0 / max-luma=1023 / log2-max-poc-lsb=8 / vui-timing-info / vui-hrd-info / slices=1 / no-opt-qp-pps / no-opt-ref-list-length-pps / no-multi-pass-opt-rps / scenecut-bias=0.00 / hist-threshold=0.01 / no-opt-cu-delta-qp / no-aq-motion / no-hdr10 / hdr10-opt / no-dhdr10-opt / no-idr-recovery-sei / analysis-reuse-level=0 / analysis-save-reuse-level=0 / analysis-load-reuse-level=0 / scale-factor=0 / refine-intra=0 / refine-inter=0 / refine-mv=1 / refine-ctu-distortion=0 / no-limit-sao / ctu-info=0 / no-lowpass-dct / refine-analysis-type=0 / copy-pic=1 / max-ausize-factor=1.0 / no-dynamic-refine / no-single-sei / no-hevc-aq / no-svt / no-field / qp-adaptation-range=1.00 / no-scenecut-aware-qpconformance-window-offsets / right=0 / bottom=0
Default                     : No
Forced                      : No
Color range                 : Limited
Color primaries             : BT.2020
Transfer characteristics    : PQ
Matrix coefficients         : BT.2020 non-constant

Audio
ID                          : 2
Format                      : E-AC-3 JOC
Format/Info                 : Enhanced AC-3 with Joint Object Coding
Commercial name             : Dolby Digital Plus with Dolby Atmos
Codec ID                    : A_EAC3
Duration                    : 37 min 43 s
Bit rate mode               : Constant
Bit rate                    : 768 kb/s
Channel(s)                  : 6 channels
Channel layout              : L R C LFE Ls Rs
Sampling rate               : 48.0 kHz
Frame rate                  : 31.250 FPS (1536 SPF)
Compression mode            : Lossy
Stream size                 : 207 MiB (3%)
Language                    : English
Service kind                : Complete Main
Default                     : No
Forced                      : No
Complexity index            : 16
Number of dynamic objects   : 15
Bed channel count           : 1 channel
Bed channel configuration   : LFE

Text #1
ID                          : 3
Format                      : UTF-8
Codec ID                    : S_TEXT/UTF8
Codec ID/Info               : UTF-8 Plain Text
Duration                    : 28 min 30 s
Bit rate                    : 22 b/s
Count of elements           : 133
Stream size                 : 4.60 KiB (0%)
Language                    : English
Default                     : No
Forced                      : No

Text #2
ID                          : 4
Format                      : UTF-8
Codec ID                    : S_TEXT/UTF8
Codec ID/Info               : UTF-8 Plain Text
Duration                    : 33 min 30 s
Bit rate                    : 28 b/s
Count of elements           : 261
Stream size                 : 7.06 KiB (0%)
Title                       : SDH
Language                    : English
Default                     : No
Forced                      : No

Text #3
ID                          : 5
Format                      : UTF-8
Codec ID                    : S_TEXT/UTF8
Codec ID/Info               : UTF-8 Plain Text
Duration                    : 37 min 13 s
Bit rate                    : 14 b/s
Count of elements           : 147
Stream size                 : 3.82 KiB (0%)
Title                       : Hong Kong
Language                    : Chinese
Default                     : No
Forced                      : No

Text #4
ID                          : 6
Format                      : UTF-8
Codec ID                    : S_TEXT/UTF8
Codec ID/Info               : UTF-8 Plain Text
Duration                    : 37 min 13 s
Bit rate                    : 13 b/s
Count of elements           : 147
Stream size                 : 3.75 KiB (0%)
Title                       : Simplified
Language                    : Chinese
Default                     : No
Forced                      : No

Text #5
ID                          : 7
Format                      : UTF-8
Codec ID                    : S_TEXT/UTF8
Codec ID/Info               : UTF-8 Plain Text
Duration                    : 37 min 13 s
Bit rate                    : 12 b/s
Count of elements           : 147
Stream size                 : 3.53 KiB (0%)
Title                       : Traditional
Language                    : Chinese
Default                     : No
Forced                      : No

Text #6
ID                          : 8
Format                      : UTF-8
Codec ID                    : S_TEXT/UTF8
Codec ID/Info               : UTF-8 Plain Text
Duration                    : 30 min 45 s
Bit rate                    : 20 b/s
Count of elements           : 105
Stream size                 : 4.61 KiB (0%)
Language                    : Danish
Default                     : No
Forced                      : No

Text #7
ID                          : 9
Format                      : UTF-8
Codec ID                    : S_TEXT/UTF8
Codec ID/Info               : UTF-8 Plain Text
Duration                    : 34 min 43 s
Bit rate                    : 19 b/s
Count of elements           : 144
Stream size                 : 4.93 KiB (0%)
Language                    : German
Default                     : No
Forced                      : No

Text #8
ID                          : 10
Format                      : UTF-8
Codec ID                    : S_TEXT/UTF8
Codec ID/Info               : UTF-8 Plain Text
Duration                    : 34 min 43 s
Bit rate                    : 17 b/s
Count of elements           : 146
Stream size                 : 4.51 KiB (0%)
Title                       : Latin American
Language                    : Spanish
Default                     : No
Forced                      : No

Text #9
ID                          : 11
Format                      : UTF-8
Codec ID                    : S_TEXT/UTF8
Codec ID/Info               : UTF-8 Plain Text
Duration                    : 34 min 43 s
Bit rate                    : 17 b/s
Count of elements           : 146
Stream size                 : 4.51 KiB (0%)
Title                       : European
Language                    : Spanish
Default                     : No
Forced                      : No

Text #10
ID                          : 12
Format                      : UTF-8
Codec ID                    : S_TEXT/UTF8
Codec ID/Info               : UTF-8 Plain Text
Duration                    : 27 min 57 s
Bit rate                    : 21 b/s
Count of elements           : 151
Stream size                 : 4.35 KiB (0%)
Title                       : Canadian
Language                    : French
Default                     : No
Forced                      : No

Text #11
ID                          : 13
Format                      : UTF-8
Codec ID                    : S_TEXT/UTF8
Codec ID/Info               : UTF-8 Plain Text
Duration                    : 34 min 43 s
Bit rate                    : 17 b/s
Count of elements           : 152
Stream size                 : 4.41 KiB (0%)
Language                    : French
Default                     : No
Forced                      : No

Text #12
ID                          : 14
Format                      : UTF-8
Codec ID                    : S_TEXT/UTF8
Codec ID/Info               : UTF-8 Plain Text
Duration                    : 34 min 43 s
Bit rate                    : 18 b/s
Count of elements           : 145
Stream size                 : 4.73 KiB (0%)
Language                    : Italian
Default                     : No
Forced                      : No

Text #13
ID                          : 15
Format                      : UTF-8
Codec ID                    : S_TEXT/UTF8
Codec ID/Info               : UTF-8 Plain Text
Duration                    : 37 min 13 s
Bit rate                    : 16 b/s
Count of elements           : 139
Stream size                 : 4.40 KiB (0%)
Language                    : Japanese
Default                     : No
Forced                      : No

Text #14
ID                          : 16
Format                      : UTF-8
Codec ID                    : S_TEXT/UTF8
Codec ID/Info               : UTF-8 Plain Text
Duration                    : 37 min 13 s
Bit rate                    : 17 b/s
Count of elements           : 147
Stream size                 : 4.79 KiB (0%)
Language                    : Korean
Default                     : No
Forced                      : No

Text #15
ID                          : 17
Format                      : UTF-8
Codec ID                    : S_TEXT/UTF8
Codec ID/Info               : UTF-8 Plain Text
Duration                    : 34 min 43 s
Bit rate                    : 18 b/s
Count of elements           : 137
Stream size                 : 4.78 KiB (0%)
Language                    : Dutch
Default                     : No
Forced                      : No

Text #16
ID                          : 18
Format                      : UTF-8
Codec ID                    : S_TEXT/UTF8
Codec ID/Info               : UTF-8 Plain Text
Duration                    : 34 min 43 s
Bit rate                    : 16 b/s
Count of elements           : 145
Stream size                 : 4.30 KiB (0%)
Language                    : Norwegian
Default                     : No
Forced                      : No

Text #17
ID                          : 19
Format                      : UTF-8
Codec ID                    : S_TEXT/UTF8
Codec ID/Info               : UTF-8 Plain Text
Duration                    : 34 min 43 s
Bit rate                    : 17 b/s
Count of elements           : 146
Stream size                 : 4.44 KiB (0%)
Language                    : Portuguese
Default                     : No
Forced                      : No

Text #18
ID                          : 20
Format                      : UTF-8
Codec ID                    : S_TEXT/UTF8
Codec ID/Info               : UTF-8 Plain Text
Duration                    : 34 min 43 s
Bit rate                    : 18 b/s
Count of elements           : 146
Stream size                 : 4.80 KiB (0%)
Title                       : Brazilian
Language                    : Portuguese
Default                     : No
Forced                      : No

Text #19
ID                          : 21
Format                      : UTF-8
Codec ID                    : S_TEXT/UTF8
Codec ID/Info               : UTF-8 Plain Text
Duration                    : 34 min 43 s
Bit rate                    : 18 b/s
Count of elements           : 145
Stream size                 : 4.73 KiB (0%)
Language                    : Finnish
Default                     : No
Forced                      : No

Text #20
ID                          : 22
Format                      : UTF-8
Codec ID                    : S_TEXT/UTF8
Codec ID/Info               : UTF-8 Plain Text
Duration                    : 30 min 45 s
Bit rate                    : 20 b/s
Count of elements           : 120
Stream size                 : 4.58 KiB (0%)
Language                    : Swedish
Default                     : No
Forced                      : No

Menu
00:37:38.125                : en:Credits

视频截图

下载地址

The.Book.of.Boba.Fett.S01.2160p.WEB-DL.x265.10bit.HDR.DDP5.1.Atmos-BobarBiriyani[rartv] 52.33GB:magnet:?xt=urn:btih:C1F2A1A56D8C0BB4EEB759FB8F93D180418096A3

The.Book.of.Boba.Fett.S01.2160p.WEB-DL.x265.8bit.SDR.DDP5.1.Atmos-BobarBiriyani[rartv] 46.67GB:magnet:?xt=urn:btih:963FFD2A73E5491500264813D7A6C628970A1675

The.Book.of.Boba.Fett.S01.1080p.DSNP.WEBRip.DDP5.1.Atmos.x264-TBD[rartv] 14.98GB:magnet:?xt=urn:btih:CF6F542B01D340CA3D6FE4B4B25B3E88C239C162

霸王龙压制组

百度网盘 HD1080P.官方中字
https://pan.baidu.com/s/1vgllqPNrMNA0nbHCuHsImA 提取码:trex
阿里云网盘 HD1080P.官方中字
https://www.aliyundrive.com/s/P6gZejwPrdh 

远鉴字幕组

迅雷云盘 
https://pan.xunlei.com/s/VMvSaduOOyhzd0Z_Log3x1zYA1 提取码:qt8w
夸克网盘
https://pan.quark.cn/s/bc1af8dd0cb5

The Mandalorian 曼达洛人

[曼达洛人]The.Mandalorian.S01.INTERNAL.HDR.2160p.WEB.H265.BOBO [中英特效字幕] 35.56GB:magnet:?xt=urn:btih:A8A4B7B2321837F722B5A419D834A407003E6DD6

曼达洛人第一季全集(特效中英双字幕) 6.48GB:magnet:?xt=urn:btih:3FB42BE3DA35890EB647C8BC943F3478CF03478E

[曼达洛人]The.Mandalorian.S02.2160p.DSNP.WEB-DL.HDR.x265.10bit.DDP5.1.Atmos.BOBO [中英特效字幕] 25.49GB:magnet:?xt=urn:btih:5D56474456C0330FCB612B5D8A194122F765E48A

曼达洛人第二季全集(特效中英双字幕) 6.83GB:magnet:?xt=urn:btih:FD32EDE75B31DB07D04BAAB3C3B6532CC7E2B0F1

星球大战 1977-2019][11部合集]

阿里云盘:https://www.aliyundrive.com/s/Ry1ZARdirnh

留下评论

LightDark
LightDark