[2022欧美动画][The Ice Age Adventures of Buck Wild:冰川时代:巴克·怀尔德的冒险之旅][多国语言字幕][WEB-MKV-2160P(4K)]

%title插图%num

译  名 冰川时代:巴克·怀尔德的冒险之旅 / 冰川时代:巴克大冒险 / 冰川时代:巴克的冒险
◎片  名 The Ice Age Adventures of Buck Wild
◎年  代 2022
◎产  地 美国
◎类  别 喜剧 / 动画 / 冒险
◎语  言 英语
◎上映日期 2022-01-28(美国网络)
◎IMDb链接 https://www.imdb.com/title/tt13634480/
◎豆瓣链接 https://movie.douban.com/subject/35284564/
◎导  演 约翰·C·唐金 John C. Donkin (id:1282574)
◎编  剧 吉姆·赫克特 Jim Hecht (id:1051454)
      卡洛斯·沙尔丹哈 Carlos Saldanha (id:1009704)
      麦克·特米尔 Mike Thurmeier (id:1299248)
◎演  员 西蒙·佩吉 Simon Pegg (id:1035648)
      乌特卡什·安邦德卡尔 Utkarsh Ambudkar (id:1237549)
      文森·童 Vincent Tong (id:1466574)
      艾伦·哈里斯 Aaron Harris (id:1466575)

◎简  介 

  该片将以黄鼠狼巴克·怀尔德为主角,讲述巴克与负鼠兄弟Crash和Eddie的故事。

视频信息

General
Unique ID                   : 221011777011505132765761827218189717086 (0xA64551E7A511F9D60977384E61C00E5E)
Complete name               : E:\DSfile\The.Ice.Age.Adventures.of.Buck.Wild.2022.2160p.DSNP.WEB-DL.x265.10bit.HDR.DDP5.1.Atmos-TEPES\The.Ice.Age.Adventures.of.Buck.Wild.2022.2160p.WEB-DL.DDP5.1.Atmos.HDR.HEVC-TEPES.mkv
Format                      : Matroska
Format version              : Version 4
File size                   : 12.8 GiB
Duration                    : 1 h 21 min
Overall bit rate            : 22.6 Mb/s
Writing application         : mkvmerge v64.0.0 ('Willows') 64-bit
Writing library             : libebml v1.4.2 + libmatroska v1.6.4

Video
ID                          : 1
Format                      : HEVC
Format/Info                 : High Efficiency Video Coding
Format profile              : Main 10@L5@Main
Codec ID                    : V_MPEGH/ISO/HEVC
Duration                    : 1 h 21 min
Bit rate                    : 21.8 Mb/s
Width                       : 3 840 pixels
Height                      : 2 160 pixels
Display aspect ratio        : 16:9
Frame rate mode             : Constant
Frame rate                  : 23.976 (24000/1001) FPS
Color space                 : YUV
Chroma subsampling          : 4:2:0
Bit depth                   : 10 bits
Bits/(Pixel*Frame)          : 0.110
Stream size                 : 12.4 GiB (97%)
Writing library             : x265 3.5:[Linux][GCC 9.3.0][64 bit] 10bit
Encoding settings           : cpuid=1111039 / frame-threads=1 / numa-pools=16 / wpp / no-pmode / no-pme / no-psnr / no-ssim / log-level=2 / input-csp=1 / input-res=3840x2160 / interlace=0 / total-frames=0 / level-idc=50 / high-tier=0 / uhd-bd=0 / ref=3 / no-allow-non-conformance / repeat-headers / annexb / no-aud / no-hrd / info / hash=0 / no-temporal-layers / no-open-gop / min-keyint=48 / keyint=48 / gop-lookahead=0 / bframes=2 / b-adapt=1 / b-pyramid / bframe-bias=0 / rc-lookahead=48 / lookahead-slices=8 / scenecut=0 / hist-scenecut=0 / radl=0 / no-splice / no-intra-refresh / ctu=32 / min-cu-size=8 / no-rect / no-amp / max-tu-size=16 / tu-inter-depth=2 / tu-intra-depth=2 / limit-tu=0 / rdoq-level=1 / dynamic-rd=0.00 / no-ssim-rd / signhide / no-tskip / nr-intra=0 / nr-inter=0 / no-constrained-intra / no-strong-intra-smoothing / max-merge=3 / limit-refs=1 / no-limit-modes / me=1 / subme=2 / merange=44 / temporal-mvp / no-frame-dup / no-hme / weightp / no-weightb / no-analyze-src-pics / deblock=0:0 / no-sao / no-sao-non-deblock / rd=4 / selective-sao=0 / early-skip / rskip / no-fast-intra / no-tskip-fast / no-cu-lossless / b-intra / no-splitrd-skip / rdpenalty=1 / psy-rd=1.60 / psy-rdoq=5.00 / no-rd-refine / no-lossless / cbqpoffs=0 / crqpoffs=0 / rc=abr / bitrate=23000 / qcomp=0.75 / qpstep=4 / stats-write=0 / stats-read=0 / vbv-maxrate=25000 / vbv-bufsize=25000 / vbv-init=0.9 / ipratio=1.40 / pbratio=1.30 / aq-mode=3 / aq-strength=1.00 / no-cutree / zone-count=0 / no-strict-cbr / qg-size=32 / no-rc-grain / qpmax=69 / qpmin=0 / no-const-vbv / sar=1 / overscan=0 / videoformat=5 / range=0 / colorprim=9 / transfer=16 / colormatrix=9 / chromaloc=0 / display-window=0 / cll=0,0 / min-luma=0 / max-luma=1023 / log2-max-poc-lsb=8 / vui-timing-info / vui-hrd-info / slices=1 / no-opt-qp-pps / no-opt-ref-list-length-pps / no-multi-pass-opt-rps / scenecut-bias=0.00 / hist-threshold=0.01 / no-opt-cu-delta-qp / no-aq-motion / no-hdr10 / hdr10-opt / no-dhdr10-opt / no-idr-recovery-sei / analysis-reuse-level=0 / analysis-save-reuse-level=0 / analysis-load-reuse-level=0 / scale-factor=0 / refine-intra=0 / refine-inter=0 / refine-mv=1 / refine-ctu-distortion=0 / no-limit-sao / ctu-info=0 / no-lowpass-dct / refine-analysis-type=0 / copy-pic=1 / max-ausize-factor=1.0 / no-dynamic-refine / no-single-sei / no-hevc-aq / no-svt / no-field / qp-adaptation-range=1.00 / no-scenecut-aware-qpconformance-window-offsets / right=0 / bottom=0
Default                     : Yes
Forced                      : No
Color range                 : Limited
Color primaries             : BT.2020
Transfer characteristics    : PQ
Matrix coefficients         : BT.2020 non-constant

Audio
ID                          : 2
Format                      : E-AC-3 JOC
Format/Info                 : Enhanced AC-3 with Joint Object Coding
Commercial name             : Dolby Digital Plus with Dolby Atmos
Codec ID                    : A_EAC3
Duration                    : 1 h 21 min
Bit rate mode               : Constant
Bit rate                    : 768 kb/s
Channel(s)                  : 6 channels
Channel layout              : L R C LFE Ls Rs
Sampling rate               : 48.0 kHz
Frame rate                  : 31.250 FPS (1536 SPF)
Compression mode            : Lossy
Delay relative to video     : 1 s 877 ms
Stream size                 : 445 MiB (3%)
Language                    : English
Service kind                : Complete Main
Default                     : Yes
Forced                      : No
Complexity index            : 16
Number of dynamic objects   : 15
Bed channel count           : 1 channel
Bed channel configuration   : LFE

Text #1
ID                          : 3
Format                      : UTF-8
Codec ID                    : S_TEXT/UTF8
Codec ID/Info               : UTF-8 Plain Text
Duration                    : 1 h 17 min
Bit rate                    : 63 b/s
Count of elements           : 1065
Stream size                 : 36.0 KiB (0%)
Language                    : English
Default                     : No
Forced                      : No

Text #2
ID                          : 4
Format                      : UTF-8
Codec ID                    : S_TEXT/UTF8
Codec ID/Info               : UTF-8 Plain Text
Duration                    : 1 h 17 min
Bit rate                    : 76 b/s
Count of elements           : 1366
Stream size                 : 43.4 KiB (0%)
Title                       : SDH
Language                    : English
Default                     : No
Forced                      : No

Text #3
ID                          : 5
Format                      : UTF-8
Codec ID                    : S_TEXT/UTF8
Codec ID/Info               : UTF-8 Plain Text
Duration                    : 1 h 20 min
Bit rate                    : 48 b/s
Count of elements           : 1015
Stream size                 : 28.4 KiB (0%)
Language                    : Danish
Default                     : No
Forced                      : No

Text #4
ID                          : 6
Format                      : UTF-8
Codec ID                    : S_TEXT/UTF8
Codec ID/Info               : UTF-8 Plain Text
Duration                    : 1 h 20 min
Bit rate                    : 54 b/s
Count of elements           : 972
Stream size                 : 32.2 KiB (0%)
Language                    : German
Default                     : No
Forced                      : No

Text #5
ID                          : 7
Format                      : UTF-8
Codec ID                    : S_TEXT/UTF8
Codec ID/Info               : UTF-8 Plain Text
Duration                    : 1 h 20 min
Bit rate                    : 49 b/s
Count of elements           : 901
Stream size                 : 29.2 KiB (0%)
Title                       : Latin American
Language                    : Spanish
Default                     : No
Forced                      : No

Text #6
ID                          : 8
Format                      : UTF-8
Codec ID                    : S_TEXT/UTF8
Codec ID/Info               : UTF-8 Plain Text
Duration                    : 1 h 20 min
Bit rate                    : 51 b/s
Count of elements           : 920
Stream size                 : 30.4 KiB (0%)
Language                    : Spanish
Default                     : No
Forced                      : No

Text #7
ID                          : 9
Format                      : UTF-8
Codec ID                    : S_TEXT/UTF8
Codec ID/Info               : UTF-8 Plain Text
Duration                    : 1 h 20 min
Bit rate                    : 51 b/s
Count of elements           : 1012
Stream size                 : 30.2 KiB (0%)
Language                    : Finnish
Default                     : No
Forced                      : No

Text #8
ID                          : 10
Format                      : UTF-8
Codec ID                    : S_TEXT/UTF8
Codec ID/Info               : UTF-8 Plain Text
Duration                    : 1 h 20 min
Bit rate                    : 57 b/s
Count of elements           : 957
Stream size                 : 33.8 KiB (0%)
Language                    : French
Default                     : No
Forced                      : No

Text #9
ID                          : 11
Format                      : UTF-8
Codec ID                    : S_TEXT/UTF8
Codec ID/Info               : UTF-8 Plain Text
Duration                    : 1 h 20 min
Bit rate                    : 46 b/s
Count of elements           : 975
Stream size                 : 27.6 KiB (0%)
Language                    : Italian
Default                     : No
Forced                      : No

Text #10
ID                          : 12
Format                      : UTF-8
Codec ID                    : S_TEXT/UTF8
Codec ID/Info               : UTF-8 Plain Text
Duration                    : 1 h 20 min
Bit rate                    : 52 b/s
Count of elements           : 993
Stream size                 : 30.6 KiB (0%)
Language                    : Japanese
Default                     : No
Forced                      : No

Text #11
ID                          : 13
Format                      : UTF-8
Codec ID                    : S_TEXT/UTF8
Codec ID/Info               : UTF-8 Plain Text
Duration                    : 1 h 20 min
Bit rate                    : 66 b/s
Count of elements           : 1013
Stream size                 : 39.3 KiB (0%)
Language                    : Korean
Default                     : No
Forced                      : No

Text #12
ID                          : 14
Format                      : UTF-8
Codec ID                    : S_TEXT/UTF8
Codec ID/Info               : UTF-8 Plain Text
Duration                    : 1 h 20 min
Bit rate                    : 47 b/s
Count of elements           : 818
Stream size                 : 28.1 KiB (0%)
Language                    : Dutch
Default                     : No
Forced                      : No

Text #13
ID                          : 15
Format                      : UTF-8
Codec ID                    : S_TEXT/UTF8
Codec ID/Info               : UTF-8 Plain Text
Duration                    : 1 h 20 min
Bit rate                    : 50 b/s
Count of elements           : 805
Stream size                 : 29.9 KiB (0%)
Language                    : Norwegian
Default                     : No
Forced                      : No

Text #14
ID                          : 16
Format                      : UTF-8
Codec ID                    : S_TEXT/UTF8
Codec ID/Info               : UTF-8 Plain Text
Duration                    : 1 h 20 min
Bit rate                    : 49 b/s
Count of elements           : 883
Stream size                 : 29.3 KiB (0%)
Title                       : Brazilian
Language                    : Portuguese
Default                     : No
Forced                      : No

Text #15
ID                          : 17
Format                      : UTF-8
Codec ID                    : S_TEXT/UTF8
Codec ID/Info               : UTF-8 Plain Text
Duration                    : 1 h 20 min
Bit rate                    : 52 b/s
Count of elements           : 980
Stream size                 : 31.2 KiB (0%)
Language                    : Portuguese
Default                     : No
Forced                      : No

Text #16
ID                          : 18
Format                      : UTF-8
Codec ID                    : S_TEXT/UTF8
Codec ID/Info               : UTF-8 Plain Text
Duration                    : 1 h 20 min
Bit rate                    : 53 b/s
Count of elements           : 1011
Stream size                 : 31.6 KiB (0%)
Language                    : Swedish
Default                     : No
Forced                      : No

Text #17
ID                          : 19
Format                      : UTF-8
Codec ID                    : S_TEXT/UTF8
Codec ID/Info               : UTF-8 Plain Text
Duration                    : 1 h 20 min
Bit rate                    : 54 b/s
Count of elements           : 1015
Stream size                 : 32.0 KiB (0%)
Title                       : Cantonese
Language                    : Chinese
Default                     : No
Forced                      : No

Text #18
ID                          : 20
Format                      : UTF-8
Codec ID                    : S_TEXT/UTF8
Codec ID/Info               : UTF-8 Plain Text
Duration                    : 1 h 20 min
Bit rate                    : 55 b/s
Count of elements           : 1006
Stream size                 : 32.4 KiB (0%)
Title                       : Simplified
Language                    : Chinese
Default                     : No
Forced                      : No

Text #19
ID                          : 21
Format                      : UTF-8
Codec ID                    : S_TEXT/UTF8
Codec ID/Info               : UTF-8 Plain Text
Duration                    : 1 h 20 min
Bit rate                    : 55 b/s
Count of elements           : 1015
Stream size                 : 32.4 KiB (0%)
Title                       : Traditional
Language                    : Chinese
Default                     : No
Forced                      : No

Menu
01:17:57.511                : en:Credits

视频截图

下载地址

The.Ice.Age.Adventures.of.Buck.Wild.2022.2160p.DSNP.WEB-DL.x265.10bit.HDR.DDP5.1.Atmos-TEPES 12.81GB:magnet:?xt=urn:btih:8FC5074D15453C018F2178556DBA5C99A3D5BCD4

The.Ice.Age.Adventures.of.Buck.Wild.2022.2160p.DSNP.WEB-DL.x265.10bit.SDR.DDP5.1.Atmos-TEPES 11.56GB:magnet:?xt=urn:btih:11A62BACB4B5CD89A404939DF2A91C668DD52DD5

The.Ice.Age.Adventures.of.Buck.Wild.2022.1080p.DSNP.WEBRip.DDP5.1.Atmos.x264-TEPES 4.60GB:magnet:?xt=urn:btih:DBBB70779BB43FA248945D68CC627D0E3445BC0A

冰川时代五部全.1080p.英国粤三语.BD中英双字.mp4 13.64GB:magnet:?xt=urn:btih:9EC8685AD56F729F1D10547D1B4DE9B71E8F8680

[冰川时代/冰河世纪 2002-2016][6部合集][BD-MKV/66G][国粤英三音轨][简中特效]

[冰川时代]Ice Age.2002.BluRay.1080p.DTS-HD.MA5.1.3Audio.BOBO 7.91GB:magnet:?xt=urn:btih:9E77151D3281C7993EBECB25B2F4663ECE396EE9

[冰川时代2:融冰之灾]Ice.Age.The.Meltdown‎.2006.BluRay.1080p.DTS-HD.MA5.1.3Audio.BOBO 9.02GB:magnet:?xt=urn:btih:7365F581AEAF8248176094A5AED6DCC99B617682

[冰川时代3]Ice.Age.Dawn.of.the.Dinosaurs.2009.2160p.WEB-DL.H265.SDR.DTS-HD.MA.7.1.3Audio.BOBO 14.42GB:magnet:?xt=urn:btih:C862FE98A5AF1D2482D831C64AFD0D352EDB7F68

[冰河世纪:猛犸象的圣诞]Ice.Age.A.Mammoth.Christmas.2011.BluRay.1080p.DTS-HD.MA.5.1.4Audio.BOBO 3.05GB:magnet:?xt=urn:btih:F9EC00A4766245A3DE041FDE98AA93B9422C9E51

[冰川时代4]Ice.Age.Continental.Drift.2012.2160p.WEB-DL.H265.SDR.DTS-HD.MA.7.1.3Audio.BOBO14.41GB:magnet:?xt=urn:btih:A4917D464457D592545133CB63708197367BD7CD

[冰川时代5:星际碰撞]Ice.Age.Collision.Course.2016.Bluray.SDR.H265.TureHD.7.1.3Audio.BOBO 17.42GB:magnet:?xt=urn:btih:83924EEAA842057D92F7BA57793C8E5E8715E862

阿里云盘:https://www.aliyundrive.com/s/PsU7i352Tw5

留下评论

LightDark
LightDark