[2021英国纪录][WWII in Color: Road to Victory:彩色二战:胜利之路][官译多国字幕][WEBRip-MKV-1080P]

%title插图%num

◎片  名 WWII in Color: Road to Victory
◎年  代 2021
◎产  地 英国
◎类  别 纪录片//战争
◎语  言 英语
◎上映日期 2021-12-22(英国)
◎IMDB链接 https://www.imdb.com/title/tt16477402/
◎豆瓣评分 /10 from 0 users
◎豆瓣链接 https://douban.com/subject/35710189/
◎标  签 纪录片 | documentary | WorldWar2 | Netflix | 2021
◎简  介

  扣人心弦的历史镜头和专家评论详细介绍了第二次世界大战的主要人物和决定性的转折点。

视频信息

General
Unique ID                   : 37872139685652134707816501817276041327 (0x1C7DE8A6523F8FCF7820A98D0E1F086F)
Complete name               : E:\WWII.In.Color.Road.To.Victory.S01.1080p.NF.WEBRip.AAC2.0.x264-KHN[rartv]\WWII.In.Color.Road.To.Victory.S01E01.1080p.NF.WEB-DL.AAC2.0.H.264-KHN.mkv
Format                      : Matroska
Format version              : Version 4
File size                   : 2.71 GiB
Duration                    : 52 min 10 s
Overall bit rate mode       : Variable
Overall bit rate            : 7 432 kb/s
Movie name                  : WWII.in.Color.Road.to.Victory.S01E01.Dunkirk.1080p.NF.WEB-DL.AAC2.0.H.264-KHN.mkv
Encoded date                : UTC 2021-12-22 08:51:53
Writing application         : mkvmerge v60.0.0 ('Are We Copies?') 64-bit
Writing library             : libebml v1.4.2 + libmatroska v1.6.4

Video
ID                          : 1
Format                      : AVC
Format/Info                 : Advanced Video Codec
Format profile              : Main@L4
Format settings             : CABAC / 3 Ref Frames
Format settings, CABAC      : Yes
Format settings, Reference  : 3 frames
Codec ID                    : V_MPEG4/ISO/AVC
Duration                    : 52 min 10 s
Bit rate mode               : Variable
Bit rate                    : 7 500 kb/s
Maximum bit rate            : 11.2 Mb/s
Width                       : 1 920 pixels
Height                      : 1 080 pixels
Display aspect ratio        : 16:9
Frame rate mode             : Constant
Frame rate                  : 25.000 FPS
Color space                 : YUV
Chroma subsampling          : 4:2:0
Bit depth                   : 8 bits
Scan type                   : Progressive
Bits/(Pixel*Frame)          : 0.145
Stream size                 : 2.66 GiB (98%)
Writing library             : x264 core 148 r2727 7d026e8
Encoding settings           : cabac=1 / ref=3 / deblock=1:0:0 / analyse=0x1:0x111 / me=umh / subme=10 / psy=1 / psy_rd=1.00:0.00 / mixed_ref=1 / me_range=24 / chroma_me=1 / trellis=2 / 8x8dct=0 / cqm=0 / deadzone=21,11 / fast_pskip=1 / chroma_qp_offset=-2 / threads=8 / lookahead_threads=1 / sliced_threads=0 / nr=0 / decimate=1 / interlaced=0 / bluray_compat=0 / stitchable=1 / constrained_intra=0 / bframes=2 / b_pyramid=0 / b_adapt=2 / b_bias=0 / direct=3 / weightb=1 / open_gop=0 / weightp=2 / keyint=250 / keyint_min=25 / scenecut=0 / intra_refresh=0 / rc_lookahead=50 / rc=2pass / mbtree=1 / bitrate=7500 / ratetol=1.0 / qcomp=0.50 / qpmin=6 / qpmax=51 / qpstep=4 / cplxblur=20.0 / qblur=0.5 / vbv_maxrate=11250 / vbv_bufsize=15000 / nal_hrd=vbr / filler=0 / ip_ratio=1.40 / aq=1:1.00
Default                     : Yes
Forced                      : No

Audio
ID                          : 2
Format                      : AAC LC SBR
Format/Info                 : Advanced Audio Codec Low Complexity with Spectral Band Replication
Commercial name             : HE-AAC
Format settings             : Explicit
Codec ID                    : A_AAC-2
Duration                    : 52 min 10 s
Bit rate                    : 128 kb/s
Channel(s)                  : 2 channels
Channel layout              : L R
Sampling rate               : 48.0 kHz
Frame rate                  : 23.438 FPS (2048 SPF)
Compression mode            : Lossy
Stream size                 : 47.8 MiB (2%)
Title                       : English
Language                    : English
Default                     : Yes
Forced                      : No

Text #1
ID                          : 3
Format                      : UTF-8
Codec ID                    : S_TEXT/UTF8
Codec ID/Info               : UTF-8 Plain Text
Duration                    : 51 min 1 s
Bit rate                    : 146 b/s
Count of elements           : 874
Stream size                 : 54.7 KiB (0%)
Title                       : English
Language                    : English
Default                     : Yes
Forced                      : No

Text #2
ID                          : 4
Format                      : UTF-8
Codec ID                    : S_TEXT/UTF8
Codec ID/Info               : UTF-8 Plain Text
Duration                    : 49 min 14 s
Bit rate                    : 4 b/s
Count of elements           : 38
Stream size                 : 1.74 KiB (0%)
Title                       : English (Forced)
Language                    : English
Default                     : No
Forced                      : Yes

Text #3
ID                          : 5
Format                      : UTF-8
Codec ID                    : S_TEXT/UTF8
Codec ID/Info               : UTF-8 Plain Text
Duration                    : 51 min 34 s
Bit rate                    : 162 b/s
Count of elements           : 811
Stream size                 : 61.3 KiB (0%)
Title                       : Arabic
Language                    : Arabic
Default                     : No
Forced                      : No

Text #4
ID                          : 6
Format                      : UTF-8
Codec ID                    : S_TEXT/UTF8
Codec ID/Info               : UTF-8 Plain Text
Duration                    : 51 min 34 s
Bit rate                    : 89 b/s
Count of elements           : 808
Stream size                 : 34.0 KiB (0%)
Title                       : Chinese Simplified
Language                    : Chinese
Default                     : No
Forced                      : No

Text #5
ID                          : 7
Format                      : UTF-8
Codec ID                    : S_TEXT/UTF8
Codec ID/Info               : UTF-8 Plain Text
Duration                    : 51 min 34 s
Bit rate                    : 85 b/s
Count of elements           : 908
Stream size                 : 32.1 KiB (0%)
Title                       : Chinese Traditional
Language                    : Chinese
Default                     : No
Forced                      : No

Text #6
ID                          : 8
Format                      : UTF-8
Codec ID                    : S_TEXT/UTF8
Codec ID/Info               : UTF-8 Plain Text
Duration                    : 51 min 30 s
Bit rate                    : 94 b/s
Count of elements           : 757
Stream size                 : 35.8 KiB (0%)
Title                       : Croatian
Language                    : Croatian
Default                     : No
Forced                      : No

Text #7
ID                          : 9
Format                      : UTF-8
Codec ID                    : S_TEXT/UTF8
Codec ID/Info               : UTF-8 Plain Text
Duration                    : 51 min 33 s
Bit rate                    : 106 b/s
Count of elements           : 810
Stream size                 : 40.3 KiB (0%)
Title                       : Czech
Language                    : Czech
Default                     : No
Forced                      : No

Text #8
ID                          : 10
Format                      : UTF-8
Codec ID                    : S_TEXT/UTF8
Codec ID/Info               : UTF-8 Plain Text
Duration                    : 51 min 33 s
Bit rate                    : 101 b/s
Count of elements           : 727
Stream size                 : 38.3 KiB (0%)
Title                       : Danish
Language                    : Danish
Default                     : No
Forced                      : No

Text #9
ID                          : 11
Format                      : UTF-8
Codec ID                    : S_TEXT/UTF8
Codec ID/Info               : UTF-8 Plain Text
Duration                    : 51 min 34 s
Bit rate                    : 99 b/s
Count of elements           : 766
Stream size                 : 37.7 KiB (0%)
Title                       : Dutch
Language                    : Dutch
Default                     : No
Forced                      : No

Text #10
ID                          : 12
Format                      : UTF-8
Codec ID                    : S_TEXT/UTF8
Codec ID/Info               : UTF-8 Plain Text
Duration                    : 51 min 34 s
Bit rate                    : 102 b/s
Count of elements           : 737
Stream size                 : 38.7 KiB (0%)
Title                       : Finnish
Language                    : Finnish
Default                     : No
Forced                      : No

Text #11
ID                          : 13
Format                      : UTF-8
Codec ID                    : S_TEXT/UTF8
Codec ID/Info               : UTF-8 Plain Text
Duration                    : 51 min 34 s
Bit rate                    : 109 b/s
Count of elements           : 788
Stream size                 : 41.2 KiB (0%)
Title                       : French
Language                    : French
Default                     : No
Forced                      : No

Text #12
ID                          : 14
Format                      : UTF-8
Codec ID                    : S_TEXT/UTF8
Codec ID/Info               : UTF-8 Plain Text
Duration                    : 51 min 34 s
Bit rate                    : 103 b/s
Count of elements           : 725
Stream size                 : 39.2 KiB (0%)
Title                       : German
Language                    : German
Default                     : No
Forced                      : No

Text #13
ID                          : 15
Format                      : UTF-8
Codec ID                    : S_TEXT/UTF8
Codec ID/Info               : UTF-8 Plain Text
Duration                    : 51 min 34 s
Bit rate                    : 176 b/s
Count of elements           : 798
Stream size                 : 66.8 KiB (0%)
Title                       : Greek
Language                    : Greek
Default                     : No
Forced                      : No

Text #14
ID                          : 16
Format                      : UTF-8
Codec ID                    : S_TEXT/UTF8
Codec ID/Info               : UTF-8 Plain Text
Duration                    : 51 min 33 s
Bit rate                    : 150 b/s
Count of elements           : 783
Stream size                 : 56.9 KiB (0%)
Title                       : Hebrew
Language                    : Hebrew
Default                     : No
Forced                      : No

Text #15
ID                          : 17
Format                      : UTF-8
Codec ID                    : S_TEXT/UTF8
Codec ID/Info               : UTF-8 Plain Text
Duration                    : 51 min 34 s
Bit rate                    : 112 b/s
Count of elements           : 747
Stream size                 : 42.6 KiB (0%)
Title                       : Hungarian
Language                    : Hungarian
Default                     : No
Forced                      : No

Text #16
ID                          : 18
Format                      : UTF-8
Codec ID                    : S_TEXT/UTF8
Codec ID/Info               : UTF-8 Plain Text
Duration                    : 51 min 33 s
Bit rate                    : 106 b/s
Count of elements           : 802
Stream size                 : 40.2 KiB (0%)
Title                       : Indonesian
Language                    : Indonesian
Default                     : No
Forced                      : No

Text #17
ID                          : 19
Format                      : UTF-8
Codec ID                    : S_TEXT/UTF8
Codec ID/Info               : UTF-8 Plain Text
Duration                    : 51 min 34 s
Bit rate                    : 116 b/s
Count of elements           : 809
Stream size                 : 43.9 KiB (0%)
Title                       : Italian
Language                    : Italian
Default                     : No
Forced                      : No

Text #18
ID                          : 20
Format                      : UTF-8
Codec ID                    : S_TEXT/UTF8
Codec ID/Info               : UTF-8 Plain Text
Duration                    : 51 min 33 s
Bit rate                    : 112 b/s
Count of elements           : 837
Stream size                 : 42.3 KiB (0%)
Title                       : Japanese
Language                    : Japanese
Default                     : No
Forced                      : No

Text #19
ID                          : 21
Format                      : UTF-8
Codec ID                    : S_TEXT/UTF8
Codec ID/Info               : UTF-8 Plain Text
Duration                    : 51 min 34 s
Bit rate                    : 114 b/s
Count of elements           : 810
Stream size                 : 43.2 KiB (0%)
Title                       : Korean
Language                    : Korean
Default                     : No
Forced                      : No

Text #20
ID                          : 22
Format                      : UTF-8
Codec ID                    : S_TEXT/UTF8
Codec ID/Info               : UTF-8 Plain Text
Duration                    : 51 min 34 s
Bit rate                    : 98 b/s
Count of elements           : 809
Stream size                 : 37.2 KiB (0%)
Title                       : Malay
Language                    : Malay
Default                     : No
Forced                      : No

Text #21
ID                          : 23
Format                      : UTF-8
Codec ID                    : S_TEXT/UTF8
Codec ID/Info               : UTF-8 Plain Text
Duration                    : 51 min 34 s
Bit rate                    : 100 b/s
Count of elements           : 713
Stream size                 : 38.0 KiB (0%)
Title                       : Norwegian Bokmal
Language                    : Norwegian Bokmal
Default                     : No
Forced                      : No

Text #22
ID                          : 24
Format                      : UTF-8
Codec ID                    : S_TEXT/UTF8
Codec ID/Info               : UTF-8 Plain Text
Duration                    : 51 min 34 s
Bit rate                    : 101 b/s
Count of elements           : 779
Stream size                 : 38.4 KiB (0%)
Title                       : Polish
Language                    : Polish
Default                     : No
Forced                      : No

Text #23
ID                          : 25
Format                      : UTF-8
Codec ID                    : S_TEXT/UTF8
Codec ID/Info               : UTF-8 Plain Text
Duration                    : 51 min 33 s
Bit rate                    : 102 b/s
Count of elements           : 781
Stream size                 : 38.5 KiB (0%)
Title                       : Portuguese
Language                    : Portuguese
Default                     : No
Forced                      : No

Text #24
ID                          : 26
Format                      : UTF-8
Codec ID                    : S_TEXT/UTF8
Codec ID/Info               : UTF-8 Plain Text
Duration                    : 51 min 34 s
Bit rate                    : 99 b/s
Count of elements           : 755
Stream size                 : 37.6 KiB (0%)
Title                       : Brazilian Portuguese
Language                    : Portuguese
Default                     : No
Forced                      : No

Text #25
ID                          : 27
Format                      : UTF-8
Codec ID                    : S_TEXT/UTF8
Codec ID/Info               : UTF-8 Plain Text
Duration                    : 51 min 34 s
Bit rate                    : 116 b/s
Count of elements           : 766
Stream size                 : 43.9 KiB (0%)
Title                       : Romanian
Language                    : Romanian
Default                     : No
Forced                      : No

Text #26
ID                          : 28
Format                      : UTF-8
Codec ID                    : S_TEXT/UTF8
Codec ID/Info               : UTF-8 Plain Text
Duration                    : 51 min 34 s
Bit rate                    : 172 b/s
Count of elements           : 782
Stream size                 : 65.0 KiB (0%)
Title                       : Russian
Language                    : Russian
Default                     : No
Forced                      : No

Text #27
ID                          : 29
Format                      : UTF-8
Codec ID                    : S_TEXT/UTF8
Codec ID/Info               : UTF-8 Plain Text
Duration                    : 51 min 34 s
Bit rate                    : 102 b/s
Count of elements           : 782
Stream size                 : 38.9 KiB (0%)
Title                       : Spanish
Language                    : Spanish
Default                     : No
Forced                      : No

Text #28
ID                          : 30
Format                      : UTF-8
Codec ID                    : S_TEXT/UTF8
Codec ID/Info               : UTF-8 Plain Text
Duration                    : 51 min 34 s
Bit rate                    : 102 b/s
Count of elements           : 765
Stream size                 : 38.7 KiB (0%)
Title                       : European Spanish
Language                    : Spanish
Default                     : No
Forced                      : No

Text #29
ID                          : 31
Format                      : UTF-8
Codec ID                    : S_TEXT/UTF8
Codec ID/Info               : UTF-8 Plain Text
Duration                    : 51 min 34 s
Bit rate                    : 96 b/s
Count of elements           : 766
Stream size                 : 36.6 KiB (0%)
Title                       : Swedish
Language                    : Swedish
Default                     : No
Forced                      : No

Text #30
ID                          : 32
Format                      : UTF-8
Codec ID                    : S_TEXT/UTF8
Codec ID/Info               : UTF-8 Plain Text
Duration                    : 51 min 34 s
Bit rate                    : 248 b/s
Count of elements           : 809
Stream size                 : 93.8 KiB (0%)
Title                       : Thai
Language                    : Thai
Default                     : No
Forced                      : No

Text #31
ID                          : 33
Format                      : UTF-8
Codec ID                    : S_TEXT/UTF8
Codec ID/Info               : UTF-8 Plain Text
Duration                    : 51 min 34 s
Bit rate                    : 104 b/s
Count of elements           : 802
Stream size                 : 39.4 KiB (0%)
Title                       : Turkish
Language                    : Turkish
Default                     : No
Forced                      : No

Text #32
ID                          : 34
Format                      : UTF-8
Codec ID                    : S_TEXT/UTF8
Codec ID/Info               : UTF-8 Plain Text
Duration                    : 51 min 34 s
Bit rate                    : 162 b/s
Count of elements           : 716
Stream size                 : 61.3 KiB (0%)
Title                       : Ukrainian
Language                    : Ukrainian
Default                     : No
Forced                      : No

Text #33
ID                          : 35
Format                      : UTF-8
Codec ID                    : S_TEXT/UTF8
Codec ID/Info               : UTF-8 Plain Text
Duration                    : 51 min 34 s
Bit rate                    : 144 b/s
Count of elements           : 807
Stream size                 : 54.7 KiB (0%)
Title                       : Vietnamese
Language                    : Vietnamese
Default                     : No
Forced                      : No

视频截图

下载地址

彩色二战:胜利之路 WWII.In.Color.Road.To.Victory.S01.1080p.NF.WEBRip.AAC2.0.x264-KHN[rartv] 24.68GB:magnet:?xt=urn:btih:5A5D17DF06668074A70A14F41968D45D1AB3CCB5

彩色二战:胜利之路 WWII.In.Color.Road.To.Victory.S01.720p.NF.WEBRip.AAC2.0.x264-KHN[rartv] 15.30GB:magnet:?xt=urn:btih:AB255B382196FD5B826C637DD54071CC0FC8BC4D

[无中文字幕]二战重大事件 Greatest.Events.of.World.War.II.in.HD.Colour.S01.1080p.WEB.x264-STOUT[rartv] 27.05GB:magnet:?xt=urn:btih:d4aea68aed090775daff8974a041c852f2c22fe3

[无中文字幕]二战重大事件 Greatest.Events.of.World.War.II.in.HD.Colour.S01.720p.WEB.x264-STOUT[rartv] 23.24GB:magnet:?xt=urn:btih:a8af67b9084571a8c462e909b35a1090d900608a

高清二战.History.Channel.WWII.In.HD.S01.720p.BluRay.x264-7bt 内嵌中文字幕 9.40GB:magnet:?xt=urn:btih:1062679D30833FD29226614DF103EC9BA2DBF879

二次大战全彩实录 World War II in Colour (2009) 内嵌中文字幕 4.49GB:magnet:?xt=urn:btih:1B22861E0D5762BD2B2831C7D2B4B38E135F6260

Visits: 45

留下评论

LightDark
LightDark