[2021印度犯罪][Jai Bhim:杰伊·比姆][泰米尔语中字][WEB-MKV-2160P(4K)]

%title插图%num

◎译  名 杰伊·比姆/斗争万岁/万岁毕姆
◎片  名 Jai Bhim
◎年  代 2021
◎产  地 印度
◎类  别 剧情/犯罪
◎语  言 泰米尔语
◎上映日期 2021-11-02(印度)
◎IMDb链接  https://www.imdb.com/title/tt15097216/
◎豆瓣评分 8.7/10 from 14227 users
◎豆瓣链接 https://douban.com/subject/35652715/
◎片  长 164分钟
◎导  演  T.J. Gnanavel
◎主  演 苏利耶·西瓦库马 Suriya Sivakumar
       普拉卡什·拉贾 Prakash Raj
       Padmapriya Padmapriya
◎标  签 印度 | 印度电影 | 犯罪 | 底层人民的苦难 | 剧情 | 2021 | Netflix | IMDB
◎简  介 

  当一名部落男子因涉嫌盗窃而被捕时,他的妻子求助于一名人权律师以帮助伸张正义。

视频信息

General
Unique ID                   : 191582102815956146316721431128073594080 (0x90215EF0D31BBBBC590EA4B2D16C64E0)
Complete name               : E:\DSfile\[杰伊·比姆]Jai.Bhim.2021.2160p.AMZN.WEB-DL.DDP5.1.HDR.H265.10bit.BOBO.mkv
Format                      : Matroska
Format version              : Version 4
File size                   : 17.8 GiB
Duration                    : 2 h 44 min
Overall bit rate            : 15.5 Mb/s
Movie name                  : Telly
Encoded date                : UTC 2021-12-18 11:16:25
Writing application         : mkvmerge v60.0.0 ('Are We Copies?') 64-bit
Writing library             : libebml v1.4.2 + libmatroska v1.6.4

Video
ID                          : 1
Format                      : HEVC
Format/Info                 : High Efficiency Video Coding
Format profile              : Main 10@L5@Main
HDR format                  : SMPTE ST 2094 App 4, Version 1, HDR10+ Profile B compatible
Codec ID                    : V_MPEGH/ISO/HEVC
Duration                    : 2 h 44 min
Bit rate                    : 14.9 Mb/s
Width                       : 3 840 pixels
Height                      : 1 600 pixels
Display aspect ratio        : 2.40:1
Frame rate mode             : Constant
Frame rate                  : 24.000 FPS
Color space                 : YUV
Chroma subsampling          : 4:2:0
Bit depth                   : 10 bits
Bits/(Pixel*Frame)          : 0.101
Stream size                 : 17.0 GiB (96%)
Language                    : Tamil
Default                     : Yes
Forced                      : No
Color range                 : Limited
Color primaries             : BT.2020
Transfer characteristics    : PQ
Matrix coefficients         : BT.2020 non-constant
Mastering display color pri : BT.2020
Mastering display luminance : min: 0.0001 cd/m2, max: 1000 cd/m2
Maximum Content Light Level : 967 cd/m2
Maximum Frame-Average Light : 750 cd/m2

Audio
ID                          : 2
Format                      : E-AC-3
Format/Info                 : Enhanced AC-3
Commercial name             : Dolby Digital Plus
Codec ID                    : A_EAC3
Duration                    : 2 h 44 min
Bit rate mode               : Constant
Bit rate                    : 640 kb/s
Channel(s)                  : 6 channels
Channel layout              : L R C LFE Ls Rs
Sampling rate               : 48.0 kHz
Frame rate                  : 31.250 FPS (1536 SPF)
Compression mode            : Lossy
Stream size                 : 751 MiB (4%)
Title                       : 原生泰米尔语
Language                    : Tamil
Service kind                : Complete Main
Default                     : No
Forced                      : No

Text #1
ID                          : 3
Format                      : PGS
Muxing mode                 : zlib
Codec ID                    : S_HDMV/PGS
Codec ID/Info               : Picture based subtitle format used on BDs/HD-DVDs
Duration                    : 2 h 38 min
Bit rate                    : 40.0 kb/s
Count of elements           : 4834
Stream size                 : 45.3 MiB (0%)
Title                       : SUP简中字幕
Language                    : Chinese
Default                     : Yes
Forced                      : No

Text #2
ID                          : 4
Format                      : UTF-8
Codec ID                    : S_TEXT/UTF8
Codec ID/Info               : UTF-8 Plain Text
Duration                    : 2 h 38 min
Bit rate                    : 72 b/s
Count of elements           : 2417
Stream size                 : 84.4 KiB (0%)
Title                       : SRT简中字幕
Language                    : Chinese
Default                     : No
Forced                      : No

视频截图

下载地址

[杰伊·比姆]Jai.Bhim.2021.2160p.AMZN.WEB-DL.DDP5.1.HDR.H265.10bit.BOBO 17.79GB:magnet:?xt=urn:btih:21D442C5EDF3F0EAC5F8E660211D143E52736888

杰伊·比姆.Jai.Bhim.2021.HD1080P.X264.AAC.Tamil.CHS.BDYS 4.66GB:magnet:?xt=urn:btih:793DA3A8E5FF83F657CB1945D493C2B84EA19A1F

杰伊·比姆.2021.HD1080p.中英双字.mp4 2.94GB:magnet:?xt=urn:btih:7EBA3970BB32BE80529725F782F68143E8C9D073

Visits: 61

留下评论

LightDark
LightDark