[2021中国纪录片][告訴世界我來過/告诉世界我来过][中文字幕][WEB-DL-MKV-1080P]

%title插图%num

◎译  名 告诉世界我来过 / Once They Were Here
◎片  名 告訴世界我來過
◎年  代 2021
◎产  地 中国澳门
◎类  别 纪录片
◎上映日期 2021-08-29(中国香港)
◎豆瓣链接 https://movie.douban.com/subject/35561552/
◎片  长 89分钟
◎标  签 華語電影 / 纪录片 / 社会 / 电影 / 澳门 / 死亡 / 动物 / 亲情
◎简  介
  動物的生命本來無分價值,但待遇可不盡相同。在獸醫診所裡,生命變得有價,而衡量動物生命價值的,是人。在人的選擇裡,也在人的計算裡。《告訴世界我來過》把不同動物的命運交織着,或許動物的命運,並不是來得如此純粹與隨機,所謂的生命平等,就只體現在不間斷的心跳聲之中。 24小時經營的獸醫診所是一個窗口,凝視著動物的生、離、死、別,主人的希望與絕望,但也似乎窺看著人類的自私與無情…

视频信息

General
Unique ID                   : 177677020847775172260472612475921789133 (0x85AB59780C13BC4CC3F15CA78BCC70CD)
Complete name               : E:\DSfile\[ 高清电影之家 mkvhome.com ]告诉世界我来过[中文字幕].Once.They.Were.Here.2021.1080p.WEB-DL.AAC2.0.H.264-ae@MKVHome 2.40GB\Once.They.Were.Here.2021.1080p.WEB-DL.AAC2.0.H.264-ae@MKVHome.mkv
Format                      : Matroska
Format version              : Version 4
File size                   : 2.40 GiB
Duration                    : 1 h 29 min
Overall bit rate            : 3 855 kb/s
Encoded date                : UTC 2021-12-29 13:24:03
Writing application         : mkvmerge v56.1.0 ('My Friend') 64-bit
Writing library             : libebml v1.4.2 + libmatroska v1.6.4

Video
ID                          : 1
Format                      : AVC
Format/Info                 : Advanced Video Codec
Format profile              : High@L4.1
Format settings             : CABAC / 1 Ref Frames
Format settings, CABAC      : Yes
Format settings, Reference  : 1 frame
Format settings, GOP        : M=1, N=60
Codec ID                    : V_MPEG4/ISO/AVC
Duration                    : 1 h 29 min
Bit rate mode               : Constant
Bit rate                    : 3 727 kb/s
Nominal bit rate            : 4 000 kb/s
Width                       : 1 920 pixels
Height                      : 1 080 pixels
Display aspect ratio        : 16:9
Frame rate mode             : Constant
Frame rate                  : 29.970 (30000/1001) FPS
Color space                 : YUV
Chroma subsampling          : 4:2:0
Bit depth                   : 8 bits
Scan type                   : Progressive
Bits/(Pixel*Frame)          : 0.060
Stream size                 : 2.32 GiB (97%)
Language                    : English
Default                     : Yes
Forced                      : No

Audio
ID                          : 2
Format                      : AAC LC
Format/Info                 : Advanced Audio Codec Low Complexity
Codec ID                    : A_AAC-2
Duration                    : 1 h 29 min
Bit rate                    : 125 kb/s
Channel(s)                  : 2 channels
Channel layout              : L R
Sampling rate               : 48.0 kHz
Frame rate                  : 46.875 FPS (1024 SPF)
Compression mode            : Lossy
Stream size                 : 80.0 MiB (3%)
Title                       : Cantonese
Language                    : Chinese
Default                     : Yes
Forced                      : No

Text #1
ID                          : 3
Format                      : UTF-8
Codec ID                    : S_TEXT/UTF8
Codec ID/Info               : UTF-8 Plain Text
Duration                    : 1 h 27 min
Bit rate                    : 47 b/s
Count of elements           : 1475
Stream size                 : 30.8 KiB (0%)
Title                       : Chinese Simplified
Language                    : Chinese
Default                     : Yes
Forced                      : No

Text #2
ID                          : 4
Format                      : UTF-8
Codec ID                    : S_TEXT/UTF8
Codec ID/Info               : UTF-8 Plain Text
Duration                    : 1 h 27 min
Bit rate                    : 47 b/s
Count of elements           : 1475
Stream size                 : 30.8 KiB (0%)
Title                       : Chinese Traditional
Language                    : Chinese
Default                     : No
Forced                      : No

视频截图

下载地址

告诉世界我来过[中文字幕].Once.They.Were.Here.2021.1080p.WEB-DL.AAC2.0.H.264-ae@MKVHome 2.40GB:magnet:?xt=urn:btih:C32F6F6B82ED40FF6562764B0947F39D1CB5025E

Visits: 35

留下评论

LightDark
LightDark