[2021中国大陆纪录]无尽攀登[国语配音/中英字幕][WEB-DL-MKV-2160P(4K)]

%title插图%num

◎译  名 无尽攀登
◎年  代 2021
◎产  地 中国大陆
◎类  别 纪录片 / 冒险 / 运动
◎语  言 汉语普通话
◎上映日期 2021-12-03(中国大陆) / 2021-11-18(肯道尔国际山地电影节)
◎IMDb链接 https://www.imdb.com/title/tt16345430/
◎豆瓣评分 8.2/10 (5009人评价)
◎豆瓣链接 https://movie.douban.com/subject/35625249/
◎片  长 92分钟
◎导  演 叶俊策 Junce Ye (id:1395286)
◎演  员 夏伯渝 Boyu Xia (id:1462784)
      胡歌 Ge Hu (id:1274477)
      夏登平 (id:1463497)
      柯庆峰 (id:1462783)
      刘开珞 Kailuo Liu (id:1446138)
      柯庆峰 (id:1462783)
      郭帆 Frant Gwo (id:1276086)
      吴京 Jing Wu (id:1000525)
      叶濡畅 Ruchang Ye (id:1395289)

◎标  签 纪录片 / 励志 / 登山 / 珠穆朗玛峰 / 感人 / 冒险 / 体育 / 中国大陆

◎简  介
  世界第一高峰珠穆朗玛峰每年都迎来无数梦想者的挑战,夏伯渝是第一位靠假肢成功登上珠穆朗玛峰的中国“硬核大爷”!1975年夏伯渝加入中国登山队,在攀登珠峰时因帮助队友,导致自己因冻伤而双小腿被截肢,但他并未放弃自己登顶珠峰的梦想。在经历双腿截肢、癌症侵扰、病痛折磨的43年里,夏伯渝五次冲击珠穆朗玛峰,凭借自己的坚持不懈与热爱,最终于2018年5月14日被珠峰接纳,在69岁高龄成功登顶。这使他成为无腿登顶珠峰中国第一人,也是继姚明、刘翔、中国奥运代表团和李娜之后获得劳伦斯世界体育奖年度最佳体育时刻奖的中国人。

视频信息

General
Unique ID                   : 218152732494280640241975152895768078800 (0xA41EB020828FD84C3C5A43004F1729D0)
Complete name               : E:\DSfile\[ 高清电影之家 mkvhome.com ]无尽攀登[国语配音+中文字幕].To.the.Summit.2021.2160p.WEB-DL.H265.DDP5.1-HDBWEB 1.98GB\无尽攀登.To.the.Summit.2021.2160p.WEB-DL.H265.DDP5.1-HDBWEB.mkv
Format                      : Matroska
Format version              : Version 4
File size                   : 1.98 GiB
Duration                    : 1 h 31 min
Overall bit rate            : 3 102 kb/s
Encoded date                : UTC 2022-01-02 12:42:57
Writing application         : mkvmerge v56.1.0 ('My Friend') 64-bit
Writing library             : libebml v1.4.2 + libmatroska v1.6.4

Video
ID                          : 2
Format                      : HEVC
Format/Info                 : High Efficiency Video Coding
Format profile              : Main@L5@Main
Codec ID                    : V_MPEGH/ISO/HEVC
Duration                    : 1 h 31 min
Bit rate                    : 2 845 kb/s
Width                       : 3 840 pixels
Height                      : 1 608 pixels
Display aspect ratio        : 2.40:1
Frame rate mode             : Constant
Frame rate                  : 24.000 FPS
Color space                 : YUV
Chroma subsampling          : 4:2:0
Bit depth                   : 8 bits
Bits/(Pixel*Frame)          : 0.019
Stream size                 : 1.81 GiB (92%)
Default                     : Yes
Forced                      : No

Audio
ID                          : 1
Format                      : E-AC-3
Format/Info                 : Enhanced AC-3
Commercial name             : Dolby Digital Plus
Codec ID                    : A_EAC3
Duration                    : 1 h 31 min
Bit rate mode               : Constant
Bit rate                    : 256 kb/s
Channel(s)                  : 6 channels
Channel layout              : L R C LFE Ls Rs
Sampling rate               : 48.0 kHz
Frame rate                  : 31.250 FPS (1536 SPF)
Compression mode            : Lossy
Stream size                 : 167 MiB (8%)
Language                    : Chinese
Service kind                : Complete Main
Default                     : Yes
Forced                      : No

视频截图

下载地址

无尽攀登[国语配音+中文字幕].To.the.Summit.2021.2160p.WEB-DL.H265.DDP5.1-NewWEB 1.98GB:magnet:?xt=urn:btih:C0A1813A76F4E2ACD5E2D39566586E609D98BF70

无尽攀登[国语配音+中文字幕].To.the.Summit.2021.2160p.WEB-DL.H265.DDP5.1-HDBWEB 1.98GB:magnet:?xt=urn:btih:FF95FDA3F333282839999100E55BAE7955452AC5

Wu.Jin.Pan.Deng.2021.HD1080P.国语中字.mp4 1.13GB:magnet:?xt=urn:btih:EC1A1CDB5E5DD48358095A86EB74B5D3772332F8

Visits: 30

留下评论

LightDark
LightDark