[2021中国大陆剧情]铁道英雄[国语配音/中英字幕][WEB-DL-MKV-2160P(4K)]

%title插图%num

◎译  名 铁道英雄 / 铁道游击队1939 / 铁道队 / Railway Heroes
◎年  代 2021
◎产  地 中国大陆
◎类  别 剧情 / 动作 / 历史 / 战争
◎语  言 汉语普通话
◎上映日期 2021-11-19(中国大陆)
◎IMDb链接 https://www.imdb.com/title/tt13859694/
◎豆瓣评分 6.3/10 (24857人评价)
◎豆瓣链接 https://movie.douban.com/subject/35205446/
◎片  长 123分钟
◎导  演 杨枫 Feng Yang (id:1450002)
◎编  剧 杨枫 Feng Yang (id:1450002)
◎演  员 张涵予 Hanyu Zhang (id:1274319)
      范伟 Wei Fan (id:1051526)
      魏晨 Vision Wei (id:1035594)
      周也 Ye Zhou (id:1412762)
      俞灏明 Haoming Yu (id:1317315)
      森博之 Hiroyuki Mori (id:1462633)
      谭凯 Kai Tan (id:1275687)
      杨皓宇 Haoyu Yang (id:1318482)
      小么哥 Xiaomege (id:1335218)
      张帆 Fan Zhang (id:1318045)
      周政杰 Zhengjie Zhou (id:1420022)
      姜寒 Han Jiang (id:1319456)
      郭洺宇 Mingyu Guo (id:1376398)
      刘显达 Xianda Liu (id:1362214)
      王中军 Zhongjun Wang (id:1276036)
      焦宏奋 Hongfen Jiao (id:1412277)
      杨枫 Feng Yang (id:1450002)
      贾理想 Lixiang Jia (id:1452019)
      李捷 Jie Li (id:1403835)
      刘婧 (id:1462606)
      应书岭 (id:1462607)
      尹涵 (id:1462608)
      梁剑辉 (id:1462609)
      吴智威 (id:1462610)
      吴艳芬 (id:1462611)
      吴伟龙 (id:1462612)
      曹增辉 (id:1462613)
      王中磊 Zhonglei Wang (id:1276037)
      傅若清 Ruoqing Fu (id:1417588)
      洪军 (id:1462614)
      杨磊 (id:1462615)
      许建海 Jianhai Xu (id:1384186)
      彭鸣宇 Mingyu Peng (id:1446113)
      何美臻 Min He (id:1436756)
      杨枫 Feng Yang (id:1450002)
      杨枫 Feng Yang (id:1450002)
      吴磊 (id:1462724)
      田佳茗 (id:1462725)
      牛苒苒 (id:1462616)
      佘显龙 (id:1462617)
      张世杰 Stanley Cheung (id:1280624)
      龙筱竹 Xiaozhu Long (id:1389654)
      张金岩 Rocky Zhang (id:1401864)
      李全胜 (id:1462620)
      钟波 (id:1462621)

◎标  签 抗日战争 / 爱国主义 / 红色电影 / 战争 / 真实故事改编 / 历史 / 中国 / 2021

◎简  介
  抗日战争时期,在日军肆虐横行的鲁南地区,临城枣庄英勇的“铁道队”穿铁轨、扒火车,截取武器和物资,用胆识和智慧与敌人斗争到底,殊死捍卫家园,为抗战胜利作出突出贡献。

  本片是根据发生在1935年-1945年间,洪振海、王志胜、杜季伟、刘金山等“铁道队”队员的真实事迹改编,将最大限度地还原“铁道队”的英雄故事。

视频信息

General
Unique ID                   : 122807150461778668424724128973679037483 (0x5C63CBFE1821EA1851819295C0D50C2B)
Complete name               : E:\DSfile\[ 高清电影之家 mkvhome.com ]铁道英雄[国语配音+中文字幕].Railway.Heroes.2021.2160p.120fps.WEB-DL.H265.DDP5.1-CTRLWEB 4.89GB\Railway.Heroes.2021.2160p.120fps.WEB-DL.H265.DDP5.1-CTRLWEB.mkv
Format                      : Matroska
Format version              : Version 4
File size                   : 4.88 GiB
Duration                    : 2 h 3 min
Overall bit rate            : 5 656 kb/s
Encoded date                : UTC 2022-01-05 09:33:06
Writing application         : mkvmerge v63.0.0 ('Everything') 64-bit
Writing library             : libebml v1.4.2 + libmatroska v1.6.4

Video
ID                          : 1
Format                      : HEVC
Format/Info                 : High Efficiency Video Coding
Format profile              : Main 10@L5.2@Main
Codec ID                    : V_MPEGH/ISO/HEVC
Duration                    : 2 h 3 min
Bit rate                    : 5 203 kb/s
Width                       : 3 840 pixels
Height                      : 1 608 pixels
Display aspect ratio        : 2.40:1
Frame rate mode             : Variable
Frame rate                  : 120.000 FPS
Color space                 : YUV
Chroma subsampling          : 4:2:0
Bit depth                   : 10 bits
Bits/(Pixel*Frame)          : 0.007
Stream size                 : 4.49 GiB (92%)
Default                     : Yes
Forced                      : No
Color range                 : Limited
Color primaries             : BT.709
Transfer characteristics    : BT.709
Matrix coefficients         : BT.709

Audio #1
ID                          : 2
Format                      : E-AC-3
Format/Info                 : Enhanced AC-3
Commercial name             : Dolby Digital Plus
Codec ID                    : A_EAC3
Duration                    : 2 h 3 min
Bit rate mode               : Constant
Bit rate                    : 256 kb/s
Channel(s)                  : 6 channels
Channel layout              : L R C LFE Ls Rs
Sampling rate               : 48.0 kHz
Frame rate                  : 31.250 FPS (1536 SPF)
Compression mode            : Lossy
Stream size                 : 226 MiB (5%)
Title                       : DDP 5.1
Language                    : Chinese
Service kind                : Complete Main
Default                     : Yes
Forced                      : No

Audio #2
ID                          : 3
Format                      : AAC LC
Format/Info                 : Advanced Audio Codec Low Complexity
Codec ID                    : A_AAC-2
Duration                    : 2 h 3 min
Bit rate                    : 192 kb/s
Channel(s)                  : 2 channels
Channel layout              : L R
Sampling rate               : 44.1 kHz
Frame rate                  : 43.066 FPS (1024 SPF)
Compression mode            : Lossy
Stream size                 : 168 MiB (3%)
Title                       : AAC 2.0
Language                    : Chinese
Default                     : No
Forced                      : No

视频截图

下载地址

铁道英雄[国语配音+中文字幕].Railway.Heroes.2021.2160p.120fps.WEB-DL.H265.DDP5.1-CTRLWEB 4.89GB:magnet:?xt=urn:btih:106E3E913EFCF80FDE2D2BB0B754434A76A93BA2

铁道英雄[国语配音+中文字幕].Railway.Heroes.2021.2160p.60fps.WEB-DL.H265.DDP5.1-CTRLWEB 4.38GB:magnet:?xt=urn:btih:26C67760CC378453D11DA990A33A9B3CC8934460

铁道英雄[国语配音+中文字幕].Railway.Heroes.2021.2160p.WEB-DL.H265.DDP5.1-CTRLWEB 3.48GB:magnet:?xt=urn:btih:3D77219FB76F37F7E04DBE3E6209134CA36AFC79

铁道英雄[国语配音+中文字幕].Railway.Heroes.2021.2160p.WEB-DL.H265.DDP5.1-NewWEB 3.54GB:magnet:?xt=urn:btih:9D06045F59C0B7E99890296689D241A0FEB82342

铁道英雄[国语配音+中文字幕].Railway.Heroes.2021.1080p.WEB-DL.H265.DDP5.1-CTRLWEB 3.84GB:magnet:?xt=urn:btih:015D0792D801BB3B792E22C092B63D345482F6E6

铁道英雄[国语配音+中文字幕].Railway.Heroes.2021.1080p.WEB-DL.H264.AAC-NewWEB 2.38GB:magnet:?xt=urn:btih:3CFE8358DEA6BA7A1FC90627FDDFCD63320A8470

Visits: 24

留下评论

LightDark
LightDark