[2021中国台湾剧情][華燈初上/华灯初上 第二季][国语内封简繁软字幕][WEB-DL-MKV-1080P]

%title插图%num

◎译  名 华灯初上 第二季 / 华灯初上2 / Light The Night S02
◎片  名 華燈初上 第二季
◎年  代 2021
◎产  地 中国台湾
◎类  别 剧情 / 爱情 / 犯罪
◎语  言 汉语普通话
◎上映日期 2021-12-30(中国台湾)
◎IMDb链接 https://www.imdb.com/title/tt16227124
◎豆瓣评分 7.5/10 from 8896 users
◎豆瓣链接 https://movie.douban.com/subject/35550794
◎集  数 8
◎片  长 45分钟
◎导  演 连奕琦 Yi-chi Lien
◎编  剧 杜政哲 Ryan Tu
◎主  演 林心如 Ruby Lin
       杨谨华 Chin Hua Yang
       杨祐宁 Yo Yang
       霍建华 Wallace Huo
       吴慷仁 Kang Ren Wu
       刘品言 Esther Liu
       谢琼煖 Chiung-Hsuan Hsieh
       谢欣颖 Nikki Hsin-Ying Hsieh
       郭雪芙 Puff Kuo
       江宜蓉 Cammy Chiang
       凤小岳 Rhydian Vaughan
       郑元畅 Joseph Cheng
       修杰楷 Chieh-Kai Hsiu
       张轩睿 Xuanrui Zhang
       王柏杰 Bo-Chieh Wang
       王静莹 Jane Wang
       王净 Gingle Wang
       曾敬骅 Chin-Hua Tseng
       林柏宏 Austin Lin
       章广辰 Kuang-Chen Chang
       加贺美智久 kagami tomohisa
◎标  签 华灯初上 | 台剧 | Netflix | 悬疑 | 林心如 | 犯罪 | 人性 | 吴慷仁
◎简  介

  “光”酒店的小姐们试图找出杀死姊妹的凶手,秘密和谎言也随之浮出水面。

视频信息

General
Unique ID                   : 297760843141252049325845508381805880291 (0xE002A704280EDBFEDED3AB6EE2BBA3E3)
Complete name               : W:\华灯初上.第二季.全8集.Light.The.Night.S02.2021.Complete.1080P.NF.WEB-DL.H264.DDP5.1-Vampire\华灯初上.第二季.Light.The.Night.S02.2021.EP01.1080P.NF.WEB-DL.H264.DDP5.1-Vampire.mkv
Format                      : Matroska
Format version              : Version 4
File size                   : 911 MiB
Duration                    : 45 min 3 s
Overall bit rate mode       : Variable
Overall bit rate            : 2 828 kb/s
Movie name                  : 华灯初上.第二季.Light.The.Night.S02.2021.EP01.1080P.NF.WEB-DL.H264.DDP5.1-Vampire / 华灯初上.第二季/Light.The.Night.S02
Encoded date                : UTC 2022-01-01 08:50:27
Writing application         : mkvmerge v54.0.0 ('F Maj Pixie') 64-bit
Writing library             : libebml v1.4.2 + libmatroska v1.6.3
Cover                       : Yes
Comment                     : 警告:严禁将任何作品用于商业性质活动,所有制作作品仅限于测试宽带之用,请于下载后24小时内删除。本人不承担任何法律后果!喜欢本作品请购买正版!!!
Attachments                 : cover.jpg
ARTIST                      : Vampire制作分享作品
DATE_RECORDED               : 2021
GENRE                       : 中国台湾

Video
ID                          : 1
Format                      : AVC
Format/Info                 : Advanced Video Codec
Format profile              : High@L4
Format settings             : CABAC / 4 Ref Frames
Format settings, CABAC      : Yes
Format settings, Reference  : 4 frames
Codec ID                    : V_MPEG4/ISO/AVC
Duration                    : 45 min 3 s
Bit rate mode               : Variable
Bit rate                    : 2 185 kb/s
Maximum bit rate            : 20.0 Mb/s
Width                       : 1 920 pixels
Height                      : 1 080 pixels
Display aspect ratio        : 16:9
Frame rate mode             : Constant
Frame rate                  : 29.970 (30000/1001) FPS
Color space                 : YUV
Chroma subsampling          : 4:2:0
Bit depth                   : 8 bits
Scan type                   : Progressive
Bits/(Pixel*Frame)          : 0.035
Stream size                 : 704 MiB (77%)
Title                       : Vampire制作分享作品
Writing library             : x264 core 148 r2727 7d026e8
Encoding settings           : cabac=1 / ref=4 / deblock=1:0:0 / analyse=0x3:0x111 / me=umh / subme=10 / psy=1 / psy_rd=1.00:0.00 / mixed_ref=1 / me_range=120 / chroma_me=1 / trellis=2 / 8x8dct=1 / cqm=0 / deadzone=21,11 / fast_pskip=1 / chroma_qp_offset=-2 / threads=8 / lookahead_threads=2 / sliced_threads=0 / nr=0 / decimate=1 / interlaced=0 / bluray_compat=0 / stitchable=1 / constrained_intra=0 / bframes=16 / b_pyramid=2 / b_adapt=2 / b_bias=0 / direct=3 / weightb=1 / open_gop=0 / weightp=2 / keyint=300 / keyint_min=151 / scenecut=0 / intra_refresh=0 / rc_lookahead=250 / rc=crf / mbtree=1 / crf=20.0 / qcomp=0.50 / qpmin=6 / qpmax=51 / qpstep=4 / vbv_maxrate=20000 / vbv_bufsize=25000 / crf_max=0.0 / nal_hrd=vbr / filler=0 / ip_ratio=1.40 / aq=1:0.80
Language                    : Chinese
Default                     : Yes
Forced                      : No

Audio
ID                          : 2
Format                      : E-AC-3
Format/Info                 : Enhanced AC-3
Commercial name             : Dolby Digital Plus
Codec ID                    : A_EAC3
Duration                    : 45 min 3 s
Bit rate mode               : Constant
Bit rate                    : 640 kb/s
Channel(s)                  : 6 channels
Channel layout              : L R C LFE Ls Rs
Sampling rate               : 48.0 kHz
Frame rate                  : 31.250 FPS (1536 SPF)
Compression mode            : Lossy
Stream size                 : 206 MiB (23%)
Title                       : 汉语普通话
Language                    : Chinese
Service kind                : Complete Main
Default                     : Yes
Forced                      : No

Text #1
ID                          : 3
Format                      : UTF-8
Codec ID                    : S_TEXT/UTF8
Codec ID/Info               : UTF-8 Plain Text
Duration                    : 44 min 57 s
Bit rate                    : 44 b/s
Count of elements           : 672
Stream size                 : 14.7 KiB (0%)
Title                       : 简体中文(Simplified Chinese)
Language                    : Chinese
Default                     : Yes
Forced                      : No

Text #2
ID                          : 4
Format                      : UTF-8
Codec ID                    : S_TEXT/UTF8
Codec ID/Info               : UTF-8 Plain Text
Duration                    : 41 min 33 s
Bit rate                    : 47 b/s
Count of elements           : 658
Stream size                 : 14.5 KiB (0%)
Title                       : 繁体中文(Traditional Chinese)
Language                    : Chinese
Default                     : No
Forced                      : No

视频截图

下载地址

华灯初上.第二季.全8集.Light.The.Night.S02.2021.Complete.1080P.NF.WEB-DL.H264.DDP5.1-Vampire 9.24GB:magnet:?xt=urn:btih:38384CC3372C799F2E8B3CB8F87A26C2DA280212

Light.The.Night.S01.CHINESE.1080p.NF.WEBRip.DDP5.1.x264-PlayWEB[rartv] 11GB:magnet:?xt=urn:btih:363FFA8B60DEC11B5BB106139125EA64E35E2CB3

Visits: 89

留下评论

LightDark
LightDark