[2021美国奇幻][The Witcher Season 2:猎魔人 第二季][官译多国字幕][WEB-DL-MKV-2160P(4K)]

%title插图%num

◎译  名 猎魔人 第二季/猎魔士(港/台)/狩魔猎人/巫师
◎片  名 The Witcher Season 2
◎年  代 2021
◎产  地 美国/波兰
◎类  别 剧情/动作/奇幻/冒险
◎语  言 英语
◎上映日期 2021-12-17(美国)
◎IMDB链接 https://www.imdb.com/title/tt11277244/
◎豆瓣评分 /10 from 0 users
◎豆瓣链接 https://douban.com/subject/34888567/
◎集  数 8
◎片  长 60分钟
◎导  演 史蒂芬·瑟吉克 Stephen Surjik / 爱德华·巴瑟杰特 Edward Bazalgette / 莎拉·奥格曼 Sarah O’Gorman / 格塔·帕特尔 Geeta Patel / 路易丝·胡珀 Louise Hooper
◎编  剧 安杰·萨普科夫斯基 Andrzej Sapkowski / 劳伦·施密特 Lauren Schmidt
◎主  演 亨利·卡维尔 Henry Cavill
       弗蕾娅·艾伦 Freya Allan
       安亚·查洛特拉 Anya Chalotra
       克里斯托弗·海维尤 Kristofer Hivju
       亚森·阿图 Yasen Atour
       保罗·布林 Paul Bullion
       金·波德尼亚 Kim Bodnia
       巴兹尔·伊登贝茨 Basil Eidenbenz
       凯西·克莱尔 Cassie Clare
       利兹·凯尔 Liz Carr
       西蒙·卡洛 Simon Callow
       格拉汉姆·麦克泰维什 Graham McTavish
       阿卓艾·安多 Adjoa Andoh
       凯文·道尔 Kevin Doyle
       克里斯·弗尔顿 Chris Fulton
       拉斯·米克尔森 Lars Mikkelsen
       玛安娜·本灵 MyAnna Buring
       特里卡·威尔逊-瑞德 Therica Wilson-Read
       埃蒙·法伦 Eamon Farren
       卡梅尔·拉尼亚多 Carmel Laniado
       安娜·谢弗 Anna Shaffer
       马赫什·扎杜 Mahesh Jadu
       乔伊·巴泰 Joey Batey
       罗伊斯·皮尔逊 Royce Pierreson
       艾莎·法比恩·罗斯 Aisha Fabienne Ross
       威尔逊·拉德茹-普杰尔特 Wilson Radjou-Pujalte
       Agnes Born Agnes Born
       米米·迪韦尼 Mimi Ndiweni
       汤姆·坎顿 Tom Canton
       Mecia Simson Mecia Simson
       凯恩·扎贾斯 Kaine Zajaz
       Tim Samuels Tim Samuels
       若塔·卡斯特尔诺 Jota Castellano
       Joseph Payne Joseph Payne
       阿尼雅·马森 Ania Marson
       艾德·伯奇 Ed Birch
       安·弗班克 Ann Firbank
       Niamh McCormack Niamh McCormack
       山姆·哈兹尔丁 Sam Hazeldine
       丽贝卡·汉森 Rebecca Hanssen
       爱德华·罗 Edward Rowe
        James Baxter
◎标  签 猎魔人 | Netflix | 奇幻 | 美剧 | 巫师3 | 亨利·卡维尔 | 冒险 | 剧情
◎简  介

  利维亚的杰洛特确信叶妮芙已在索登之役中丧生,他带着希瑞菈公主来到了据他所知最安全的地方,即他的童年故乡凯尔·莫罕。当这片大陆的国王、精灵、人类和恶魔在城墙外争夺统治权的时候,他必须保护这个女孩免受更危险的伤害:她体内的神秘力量。

视频信息

General
Unique ID                   : 302715650033983023750505008739599900558 (0xE3BCE9DB5DB207CCD19070C4EAA9DF8E)
Complete name               : X:\下载\The.Witcher.S02E01.a.Grain.of.Truth.2160p.NF.WEB-DL.DDP5.1.Atmos.HDR.HEVC-MZABI.mkv
Format                      : Matroska
Format version              : Version 4
File size                   : 7.03 GiB
Duration                    : 1 h 3 min
Overall bit rate            : 15.9 Mb/s
Encoded date                : UTC 2021-12-17 08:01:46
Writing application         : mkvmerge v63.0.0 ('Everything') 64-bit
Writing library             : libebml v1.4.2 + libmatroska v1.6.4

Video
ID                          : 1
Format                      : HEVC
Format/Info                 : High Efficiency Video Coding
Format profile              : Main 10@L5@Main
HDR format                  : SMPTE ST 2086, HDR10 compatible
Codec ID                    : V_MPEGH/ISO/HEVC
Duration                    : 1 h 1 min
Bit rate                    : 15.6 Mb/s
Width                       : 3 840 pixels
Height                      : 2 160 pixels
Display aspect ratio        : 16:9
Frame rate mode             : Constant
Frame rate                  : 24.000 FPS
Color space                 : YUV
Chroma subsampling          : 4:2:0 (Type 2)
Bit depth                   : 10 bits
Bits/(Pixel*Frame)          : 0.078
Stream size                 : 6.69 GiB (95%)
Default                     : Yes
Forced                      : No
Color range                 : Limited
Color primaries             : BT.2020
Transfer characteristics    : PQ
Matrix coefficients         : BT.2020 non-constant
Mastering display color pri : Display P3
Mastering display luminance : min: 0.0001 cd/m2, max: 1000 cd/m2
Maximum Content Light Level : 1023 cd/m2
Maximum Frame-Average Light : 520 cd/m2

Audio
ID                          : 2
Format                      : E-AC-3 JOC
Format/Info                 : Enhanced AC-3 with Joint Object Coding
Commercial name             : Dolby Digital Plus with Dolby Atmos
Codec ID                    : A_EAC3
Duration                    : 1 h 3 min
Bit rate mode               : Constant
Bit rate                    : 768 kb/s
Channel(s)                  : 6 channels
Channel layout              : L R C LFE Ls Rs
Sampling rate               : 48.0 kHz
Frame rate                  : 31.250 FPS (1536 SPF)
Compression mode            : Lossy
Stream size                 : 347 MiB (5%)
Title                       : English
Language                    : English
Service kind                : Complete Main
Default                     : No
Forced                      : No
Complexity index            : 16
Number of dynamic objects   : 15
Bed channel count           : 1 channel
Bed channel configuration   : LFE

Text #1
ID                          : 3
Format                      : UTF-8
Codec ID                    : S_TEXT/UTF8
Codec ID/Info               : UTF-8 Plain Text
Duration                    : 1 h 1 min
Bit rate                    : 70 b/s
Count of elements           : 654
Stream size                 : 31.7 KiB (0%)
Title                       : Arabic
Language                    : Arabic
Default                     : No
Forced                      : No

Text #2
ID                          : 4
Format                      : UTF-8
Codec ID                    : S_TEXT/UTF8
Codec ID/Info               : UTF-8 Plain Text
Duration                    : 1 h 1 min
Bit rate                    : 42 b/s
Count of elements           : 649
Stream size                 : 18.9 KiB (0%)
Title                       : Chinese Simplified
Language                    : Chinese
Default                     : No
Forced                      : No

Text #3
ID                          : 5
Format                      : UTF-8
Codec ID                    : S_TEXT/UTF8
Codec ID/Info               : UTF-8 Plain Text
Duration                    : 1 h 0 min
Bit rate                    : 40 b/s
Count of elements           : 684
Stream size                 : 18.1 KiB (0%)
Title                       : Chinese Traditional
Language                    : Chinese
Default                     : No
Forced                      : No

Text #4
ID                          : 6
Format                      : UTF-8
Codec ID                    : S_TEXT/UTF8
Codec ID/Info               : UTF-8 Plain Text
Duration                    : 1 h 1 min
Bit rate                    : 38 b/s
Count of elements           : 650
Stream size                 : 17.3 KiB (0%)
Title                       : Czech
Language                    : Czech
Default                     : No
Forced                      : No

Text #5
ID                          : 7
Format                      : UTF-8
Codec ID                    : S_TEXT/UTF8
Codec ID/Info               : UTF-8 Plain Text
Duration                    : 1 h 1 min
Bit rate                    : 38 b/s
Count of elements           : 530
Stream size                 : 17.2 KiB (0%)
Title                       : Danish
Language                    : Danish
Default                     : No
Forced                      : No

Text #6
ID                          : 8
Format                      : UTF-8
Codec ID                    : S_TEXT/UTF8
Codec ID/Info               : UTF-8 Plain Text
Duration                    : 1 h 1 min
Bit rate                    : 36 b/s
Count of elements           : 568
Stream size                 : 16.2 KiB (0%)
Title                       : Dutch
Language                    : Dutch
Default                     : No
Forced                      : No

Text #7
ID                          : 9
Format                      : UTF-8
Codec ID                    : S_TEXT/UTF8
Codec ID/Info               : UTF-8 Plain Text
Duration                    : 58 min 44 s
Bit rate                    : 49 b/s
Count of elements           : 860
Stream size                 : 21.5 KiB (0%)
Title                       : English [SDH]
Language                    : English
Default                     : No
Forced                      : No

Text #8
ID                          : 10
Format                      : UTF-8
Codec ID                    : S_TEXT/UTF8
Codec ID/Info               : UTF-8 Plain Text
Duration                    : 58 min 5 s
Bit rate                    : 41 b/s
Count of elements           : 656
Stream size                 : 17.7 KiB (0%)
Title                       : English
Language                    : English
Default                     : No
Forced                      : No

Text #9
ID                          : 11
Format                      : UTF-8
Codec ID                    : S_TEXT/UTF8
Codec ID/Info               : UTF-8 Plain Text
Duration                    : 1 h 1 min
Bit rate                    : 38 b/s
Count of elements           : 541
Stream size                 : 17.1 KiB (0%)
Title                       : Finnish
Language                    : Finnish
Default                     : No
Forced                      : No

Text #10
ID                          : 12
Format                      : UTF-8
Codec ID                    : S_TEXT/UTF8
Codec ID/Info               : UTF-8 Plain Text
Duration                    : 1 h 1 min
Bit rate                    : 40 b/s
Count of elements           : 628
Stream size                 : 18.0 KiB (0%)
Title                       : French
Language                    : French
Default                     : No
Forced                      : No

Text #11
ID                          : 13
Format                      : UTF-8
Codec ID                    : S_TEXT/UTF8
Codec ID/Info               : UTF-8 Plain Text
Duration                    : 1 h 1 min
Bit rate                    : 41 b/s
Count of elements           : 609
Stream size                 : 18.6 KiB (0%)
Title                       : German
Language                    : German
Default                     : No
Forced                      : No

Text #12
ID                          : 14
Format                      : UTF-8
Codec ID                    : S_TEXT/UTF8
Codec ID/Info               : UTF-8 Plain Text
Duration                    : 1 h 1 min
Bit rate                    : 71 b/s
Count of elements           : 654
Stream size                 : 32.0 KiB (0%)
Title                       : Greek
Language                    : Greek
Default                     : No
Forced                      : No

Text #13
ID                          : 15
Format                      : UTF-8
Codec ID                    : S_TEXT/UTF8
Codec ID/Info               : UTF-8 Plain Text
Duration                    : 1 h 1 min
Bit rate                    : 64 b/s
Count of elements           : 656
Stream size                 : 28.7 KiB (0%)
Title                       : Hebrew
Language                    : Hebrew
Default                     : No
Forced                      : No

Text #14
ID                          : 16
Format                      : UTF-8
Codec ID                    : S_TEXT/UTF8
Codec ID/Info               : UTF-8 Plain Text
Duration                    : 1 h 0 min
Bit rate                    : 34 b/s
Count of elements           : 657
Stream size                 : 15.4 KiB (0%)
Title                       : Croatian
Language                    : Croatian
Default                     : No
Forced                      : No

Text #15
ID                          : 17
Format                      : UTF-8
Codec ID                    : S_TEXT/UTF8
Codec ID/Info               : UTF-8 Plain Text
Duration                    : 1 h 1 min
Bit rate                    : 37 b/s
Count of elements           : 630
Stream size                 : 17.0 KiB (0%)
Title                       : Hungarian
Language                    : Hungarian
Default                     : No
Forced                      : No

Text #16
ID                          : 18
Format                      : UTF-8
Codec ID                    : S_TEXT/UTF8
Codec ID/Info               : UTF-8 Plain Text
Duration                    : 1 h 1 min
Bit rate                    : 38 b/s
Count of elements           : 656
Stream size                 : 17.4 KiB (0%)
Title                       : Indonesian
Language                    : Indonesian
Default                     : No
Forced                      : No

Text #17
ID                          : 19
Format                      : UTF-8
Codec ID                    : S_TEXT/UTF8
Codec ID/Info               : UTF-8 Plain Text
Duration                    : 1 h 1 min
Bit rate                    : 38 b/s
Count of elements           : 609
Stream size                 : 17.1 KiB (0%)
Title                       : Italian
Language                    : Italian
Default                     : No
Forced                      : No

Text #18
ID                          : 20
Format                      : UTF-8
Codec ID                    : S_TEXT/UTF8
Codec ID/Info               : UTF-8 Plain Text
Duration                    : 1 h 1 min
Bit rate                    : 38 b/s
Count of elements           : 596
Stream size                 : 17.4 KiB (0%)
Title                       : Japanese
Language                    : Japanese
Default                     : No
Forced                      : No

Text #19
ID                          : 21
Format                      : UTF-8
Codec ID                    : S_TEXT/UTF8
Codec ID/Info               : UTF-8 Plain Text
Duration                    : 1 h 1 min
Bit rate                    : 47 b/s
Count of elements           : 665
Stream size                 : 21.2 KiB (0%)
Title                       : Korean
Language                    : Korean
Default                     : No
Forced                      : No

Text #20
ID                          : 22
Format                      : UTF-8
Codec ID                    : S_TEXT/UTF8
Codec ID/Info               : UTF-8 Plain Text
Duration                    : 1 h 1 min
Bit rate                    : 37 b/s
Count of elements           : 646
Stream size                 : 16.9 KiB (0%)
Title                       : Malay
Language                    : Malay
Default                     : No
Forced                      : No

Text #21
ID                          : 23
Format                      : UTF-8
Codec ID                    : S_TEXT/UTF8
Codec ID/Info               : UTF-8 Plain Text
Duration                    : 1 h 1 min
Bit rate                    : 36 b/s
Count of elements           : 587
Stream size                 : 16.1 KiB (0%)
Title                       : Norwegian Bokmal
Language                    : Norwegian Bokmal
Default                     : No
Forced                      : No

Text #22
ID                          : 24
Format                      : UTF-8
Codec ID                    : S_TEXT/UTF8
Codec ID/Info               : UTF-8 Plain Text
Duration                    : 1 h 1 min
Bit rate                    : 38 b/s
Count of elements           : 640
Stream size                 : 17.2 KiB (0%)
Title                       : Polish
Language                    : Polish
Default                     : No
Forced                      : No

Text #23
ID                          : 25
Format                      : UTF-8
Codec ID                    : S_TEXT/UTF8
Codec ID/Info               : UTF-8 Plain Text
Duration                    : 1 h 1 min
Bit rate                    : 38 b/s
Count of elements           : 636
Stream size                 : 17.0 KiB (0%)
Title                       : Portuguese
Language                    : Portuguese
Default                     : No
Forced                      : No

Text #24
ID                          : 26
Format                      : UTF-8
Codec ID                    : S_TEXT/UTF8
Codec ID/Info               : UTF-8 Plain Text
Duration                    : 1 h 1 min
Bit rate                    : 37 b/s
Count of elements           : 665
Stream size                 : 16.7 KiB (0%)
Title                       : Brazilian Portuguese
Language                    : Portuguese
Default                     : No
Forced                      : No

Text #25
ID                          : 27
Format                      : UTF-8
Codec ID                    : S_TEXT/UTF8
Codec ID/Info               : UTF-8 Plain Text
Duration                    : 1 h 1 min
Bit rate                    : 43 b/s
Count of elements           : 631
Stream size                 : 19.5 KiB (0%)
Title                       : Romanian
Language                    : Romanian
Default                     : No
Forced                      : No

Text #26
ID                          : 28
Format                      : UTF-8
Codec ID                    : S_TEXT/UTF8
Codec ID/Info               : UTF-8 Plain Text
Duration                    : 1 h 1 min
Bit rate                    : 63 b/s
Count of elements           : 650
Stream size                 : 28.6 KiB (0%)
Title                       : Russian
Language                    : Russian
Default                     : No
Forced                      : No

Text #27
ID                          : 29
Format                      : UTF-8
Codec ID                    : S_TEXT/UTF8
Codec ID/Info               : UTF-8 Plain Text
Duration                    : 1 h 1 min
Bit rate                    : 37 b/s
Count of elements           : 627
Stream size                 : 16.7 KiB (0%)
Title                       : European Spanish
Language                    : Spanish
Default                     : No
Forced                      : No

Text #28
ID                          : 30
Format                      : UTF-8
Codec ID                    : S_TEXT/UTF8
Codec ID/Info               : UTF-8 Plain Text
Duration                    : 1 h 1 min
Bit rate                    : 38 b/s
Count of elements           : 645
Stream size                 : 17.1 KiB (0%)
Title                       : Spanish
Language                    : Spanish
Default                     : No
Forced                      : No

Text #29
ID                          : 31
Format                      : UTF-8
Codec ID                    : S_TEXT/UTF8
Codec ID/Info               : UTF-8 Plain Text
Duration                    : 1 h 1 min
Bit rate                    : 39 b/s
Count of elements           : 565
Stream size                 : 17.7 KiB (0%)
Title                       : Swedish
Language                    : Swedish
Default                     : No
Forced                      : No

Text #30
ID                          : 32
Format                      : UTF-8
Codec ID                    : S_TEXT/UTF8
Codec ID/Info               : UTF-8 Plain Text
Duration                    : 1 h 1 min
Bit rate                    : 106 b/s
Count of elements           : 658
Stream size                 : 47.8 KiB (0%)
Title                       : Thai
Language                    : Thai
Default                     : No
Forced                      : No

Text #31
ID                          : 33
Format                      : UTF-8
Codec ID                    : S_TEXT/UTF8
Codec ID/Info               : UTF-8 Plain Text
Duration                    : 1 h 1 min
Bit rate                    : 40 b/s
Count of elements           : 607
Stream size                 : 18.3 KiB (0%)
Title                       : Turkish
Language                    : Turkish
Default                     : No
Forced                      : No

Text #32
ID                          : 34
Format                      : UTF-8
Codec ID                    : S_TEXT/UTF8
Codec ID/Info               : UTF-8 Plain Text
Duration                    : 1 h 1 min
Bit rate                    : 60 b/s
Count of elements           : 641
Stream size                 : 27.0 KiB (0%)
Title                       : Ukrainian
Language                    : Ukrainian
Default                     : No
Forced                      : No

Text #33
ID                          : 35
Format                      : UTF-8
Codec ID                    : S_TEXT/UTF8
Codec ID/Info               : UTF-8 Plain Text
Duration                    : 1 h 1 min
Bit rate                    : 56 b/s
Count of elements           : 649
Stream size                 : 25.5 KiB (0%)
Title                       : Vietnamese
Language                    : Vietnamese
Default                     : No
Forced                      : No

视频截图

下载地址

第二季:

The.Witcher.S02.2160p.NF.WEB-DL.x265.10bit.HDR.DDP5.1.Atmos-MZABI[rartv] 50.40GB:magnet:?xt=urn:btih:4A79198D5AB826A13DFCB86FE0A0E668675D6186

The.Witcher.S02.1080p.NF.WEBRip.DDP5.1.Atmos.x264-TEPES[rartv] 21.50GB:magnet:?xt=urn:btih:48B1E1C185A40F6916BA9BB5DF9AA7B84D8DAD77

The.Witcher.S02.720p.NF.WEBRip.DDP5.1.Atmos.x264-TEPES[rartv] 8.78GB:magnet:?xt=urn:btih:70411E5F8F017EC2AC75135E2B60EB8FEE7296CF

NEW字幕组

MP4 1080P中字

百度网盘 https://pan.baidu.com/s/1M-VF2ds9Sq8opT3P40LpKg 提取码:d4py

阿里云盘 https://www.aliyundrive.com/s/q6ecLCNSbRg 

远鉴字幕组

MP4 1080P中字

迅雷云盘 https://pan.xunlei.com/s/VMr6ugkY2-1iaK0hCf4RjS93A1 提取码:gdv6

阿里云盘 https://www.aliyundrive.com/s/Bec8rBmivLc

百度网盘 https://pan.baidu.com/s/1f6PqXwxhSVGmWuOqid6M1g 提取码: yjnb

第一季:

The.Witcher.S01.2160p.NF.WEB-DL.x265.10bit.HDR.DDP5.1.Atmos-NOGRP[rartv] 53.03GB:magnet:?xt=urn:btih:796AC97E0517690E1B37BDE1C6EE8E624E0A44BB

The.Witcher.S01.1080p.NF.WEBRip.DDP5.1.Atmos.x264-NTG[rartv] 21.90GB:magnet:?xt=urn:btih:BF900D226AF74CA235B7A09A7D6CBCEE22AB1FB1

The.Witcher.S01.720p.NF.WEBRip.DDP5.1.Atmos.x264-NTG[rartv] 11.91GB:magnet:?xt=urn:btih:AC70C8DB9794517544F3B3AF103951773234856A

远鉴字幕组

MP4 1080P官方中字  

迅雷网盘 https://pan.xunlei.com/s/VMeKS5pHQZVVOJrm5HwbtfRiA1 提取码:f76k

百度网盘 https://pan.baidu.com/s/1I3pbv6f8AGvmj9hoiFh9Fw 提取码:yjnb

阿里云盘 https://www.aliyundrive.com/s/wmTKcsSS6kZhttps://www.aliyundrive.com/s/jw55DPGaHdN

Visits: 72

留下评论

LightDark
LightDark