[2021美国剧情] [Dopesick:成瘾剂量 第一季][英语中英双字][WEBRip-MP4-1080P]

%title插图%num

◎译  名 成瘾剂量
◎片  名 Dopesick
◎年  代 2021
◎产  地 美国
◎类  别 剧情
◎语  言 英语
◎上映日期 2021-10-13(美国)
◎IMDB链接 https://www.imdb.com/title/tt9174558/
◎豆瓣评分 9.3/10 from 4945 users
◎豆瓣链接 https://douban.com/subject/35101436/
◎导  演 巴瑞·莱文森 Barry Levinson
◎编  剧 丹尼·斯特朗 Danny Strong /  Benjamin Rubin
◎主  演 迈克尔·基顿 Michael Keaton
       彼得·萨斯加德 Peter Sarsgaard
       威尔·保尔特 Will Poulter
       约翰·胡热那克 John Hoogenakker
       凯特琳·德弗 Kaitlyn Dever
       罗莎里奥·道森 Rosario Dawson
       迈克尔·斯图巴 Michael Stuhlbarg
       威尔·切斯 Will Chase
       杰克·麦克道曼 Jake McDorman
       菲莉帕·苏 Phillipa Soo
       伊恩·安特曼 Ian Unterman
       R.基斯·哈里斯 R. Keith Harris
       杰米·雷·纽曼 Jaime Ray Newman
       瑞贝卡·薇索基 Rebecca Wisocky
       皮特·布里斯 Pete Burris
       肖恩·卡拉汉 Shane Callahan
       米根·费伊 Meagen Fay
       斯宾塞·加雷特 Spencer Garrett
       尼古拉斯·罗根 Nicholas Logan
       凯特琳·梅纳 Caitlin Mehner
       安东尼·雷诺兹 Anthony Reynolds
       凯西·福特·亚历山大 Casey Ford Alexander
       肯尼·阿方索 Kenny Alfonso
       赛琳娜·安杜兹 Selena Anduze
       克利欧佩特拉·科尔曼 Cleopatra Coleman
       Scott Charles Scott Charles
◎标  签 美剧 | 剧情 | 迈克尔·基顿 | 美国 | 改编 | 2021 | 质感 | 罗莎里奥·道森
◎简  介

  迈克尔·基顿将主演Hulu 8集限定剧《成瘾剂量》(Dopesick,暂译)。丹尼·斯特朗([规则改变])担任剧集运作人与编剧,巴瑞·莱文森([死亡医生])执导。该剧根据Beth Macy撰写的同名畅销书改编,基顿扮演老派医生塞缪尔·芬尼克斯,他以仁慈和同情心对待自己的工作,但他发现自己陷入了大制药公司致命的秘密之中。

视频信息

General
Complete name                  : F:\DSfile\成瘾剂量S1\成瘾剂量.Dopesick.S01E01.1080p.WEBRip.中英双语.弯弯字幕组V2.mp4
Format                         : MPEG-4
Format profile                 : Base Media
Codec ID                       : isom (isom/avc1)
File size                      : 1.14 GiB
Duration                       : 1 h 2 min
Overall bit rate mode          : Variable
Overall bit rate               : 2 631 kb/s
Encoded date                   : UTC 2021-10-21 14:25:34
Tagged date                    : UTC 2021-10-21 14:25:34

Video
ID                             : 1
Format                         : AVC
Format/Info                    : Advanced Video Codec
Format profile                 : High@L4.1
Format settings                : CABAC / 4 Ref Frames
Format settings, CABAC         : Yes
Format settings, Reference fra : 4 frames
Codec ID                       : avc1
Codec ID/Info                  : Advanced Video Coding
Duration                       : 1 h 2 min
Bit rate                       : 2 500 kb/s
Maximum bit rate               : 12.7 Mb/s
Width                          : 1 920 pixels
Height                         : 1 080 pixels
Display aspect ratio           : 16:9
Frame rate mode                : Constant
Frame rate                     : 24.000 FPS
Color space                    : YUV
Chroma subsampling             : 4:2:0
Bit depth                      : 8 bits
Scan type                      : Progressive
Bits/(Pixel*Frame)             : 0.050
Stream size                    : 1.09 GiB (95%)
Title                          : 264#video:fps=24:par=8001:8000@GPAC0.7.0-rev0-gbd5c9af-master
Writing library                : x264 core 157 r2969 d4099dd
Encoding settings              : cabac=1 / ref=2 / deblock=1:0:0 / analyse=0x3:0x113 / me=hex / subme=6 / psy=1 / psy_rd=1.00:0.00 / mixed_ref=1 / me_range=16 / chroma_me=1 / trellis=1 / 8x8dct=1 / cqm=0 / deadzone=21,11 / fast_pskip=1 / chroma_qp_offset=-2 / threads=7 / lookahead_threads=1 / sliced_threads=0 / nr=0 / decimate=1 / interlaced=0 / bluray_compat=0 / constrained_intra=0 / bframes=3 / b_pyramid=2 / b_adapt=1 / b_bias=0 / direct=1 / weightb=1 / open_gop=0 / weightp=1 / keyint=250 / keyint_min=25 / scenecut=40 / intra_refresh=0 / rc_lookahead=30 / rc=2pass / mbtree=1 / bitrate=2500 / ratetol=1.0 / qcomp=0.60 / qpmin=0 / qpmax=69 / qpstep=4 / cplxblur=20.0 / qblur=0.5 / ip_ratio=1.40 / aq=1:1.00
Encoded date                   : UTC 2021-10-21 14:25:34
Tagged date                    : UTC 2021-10-21 14:25:45
Codec configuration box        : avcC

Audio
ID                             : 2
Format                         : AAC LC
Format/Info                    : Advanced Audio Codec Low Complexity
Codec ID                       : mp4a-40-2
Duration                       : 1 h 2 min
Bit rate mode                  : Variable
Bit rate                       : 128 kb/s
Maximum bit rate               : 172 kb/s
Channel(s)                     : 2 channels
Channel layout                 : L R
Sampling rate                  : 48.0 kHz
Frame rate                     : 46.875 FPS (1024 SPF)
Compression mode               : Lossy
Stream size                    : 57.0 MiB (5%)
Encoded date                   : UTC 2021-10-21 13:48:50
Tagged date                    : UTC 2021-10-21 14:25:45

视频截图

下载地址

弯弯字幕组

2021美国高分剧情《成瘾剂量毒瘾》全8集.HD1080P.中英双字 9.11GB:magnet:?xt=urn:btih:F001D45B308BAEE5E633B6B586539ACE202A4B3D

百度网盘:https://pan.baidu.com/s/1h_0-qA_WqCmjDYbRTzQGlQ 提取码:wwbb

阿里云盘:https://www.aliyundrive.com/s/tujrcEmYY8Z

Visits: 117

留下评论

LightDark
LightDark