[2021欧美动画][Encanto:魔法满屋][官译多国字幕][WEB-MKV-2160P(4K)]

%title插图%num

◎译  名 魔法满屋/奇幻魔法屋(港)/音乐的魔法
◎片  名 Encanto
◎年  代 2021
◎产  地 美国
◎类  别 喜剧/动画/奇幻/冒险
◎语  言 英语/西班牙语
◎上映日期 2021-11-24(美国)/2021-12-24(美国网络)/2022-01(中国大陆)
◎IMDB链接 https://www.imdb.com/title/tt2953050
◎豆瓣评分 7.2/10 from 1725 users
◎豆瓣链接 https://douban.com/subject/35134724/
◎片  长 99分钟
◎导  演 杰拉德·布什 Jared Bush / 拜伦·霍华德 Byron Howard / 查里斯·卡斯特罗·史密斯 Charise Castro Smith
◎编  剧 查里斯·卡斯特罗·史密斯 Charise Castro Smith / 杰拉德·布什 Jared Bush / 拜伦·霍华德 Byron Howard / 杰森·汉德 Jason Hand  / 南茜·克鲁斯 Nancy Kruse / 林-曼努尔·米兰达 Lin-Manuel Miranda
◎主  演 斯蒂芬妮·比翠丝 Stephanie Beatriz
       玛丽亚·塞西莉亚·波特罗 María Cecilia Botero 
       黛安·格雷罗 Diane Guerrero
       安吉·塞佩达 Angie Cepeda
       约翰·雷吉扎莫 John Leguizamo
       毛里西奥·卡斯蒂略  Mauro Castillo
       杰西卡·达罗 Jessica Darrow 
       卡萝莱娜·盖坦 Carolina Gaitan 
       维尔摩·瓦尔德拉玛 Wilmer Valderrama
       莱齐·费利兹 Rhenzy Feliz
       拉维·卡伯特·科尼尔斯 Ravi Cabot-Conyers
       爱达莎 Adassa
       胡安·路易斯·隆东纽·阿利阿斯 Maluma
       胡安·卡斯塔诺 Juan Castano
       埃克托尔·埃利亚斯 Hector Elias
       艾伦·图代克 Alan Tudyk
       欧嘉·梅雷迪斯 Olga Merediz
◎标  签 迪士尼 | 动画 | 奇幻 | 美国 | 2021 | 魔法 | 喜剧 | 冒险
◎简  介  

  故事发生在一块充满魔力的土地上。在这个人人都有魔法的家族,唯一的普通女孩将迎接怎样的挑战?

◎获奖情况

  第79届金球奖  (2022)
  电影类最佳动画长片(提名)
  电影类最佳原创配乐(提名) 吉曼·法兰科
  电影类最佳原创歌曲(提名) 林-曼努尔·米兰达

视频信息

General
Unique ID                   : 313827220691932529848893926263288259085 (0xEC18EC965E56F3A0E3C464E02290620D)
Complete name               : W:\Encanto.2021.2160p.WEB-DL.DDP5.1.Atmos.HDR.HEVC-TEPES\Encanto.2021.2160p.WEB-DL.DDP5.1.Atmos.HDR.HEVC-TEPES.mkv
Format                      : Matroska
Format version              : Version 4
File size                   : 16.5 GiB
Duration                    : 1 h 42 min
Overall bit rate            : 23.1 Mb/s
Writing application         : mkvmerge v63.0.0 ('Everything') 64-bit
Writing library             : libebml v1.4.2 + libmatroska v1.6.4

Video
ID                          : 1
Format                      : HEVC
Format/Info                 : High Efficiency Video Coding
Format profile              : Main 10@L5@Main
Codec ID                    : V_MPEGH/ISO/HEVC
Duration                    : 1 h 42 min
Bit rate                    : 22.4 Mb/s
Width                       : 3 840 pixels
Height                      : 2 160 pixels
Display aspect ratio        : 16:9
Frame rate mode             : Constant
Frame rate                  : 23.976 (24000/1001) FPS
Color space                 : YUV
Chroma subsampling          : 4:2:0
Bit depth                   : 10 bits
Bits/(Pixel*Frame)          : 0.112
Stream size                 : 15.9 GiB (97%)
Writing library             : x265 3.5:[Linux][GCC 9.3.0][64 bit] 10bit
Encoding settings           : cpuid=1111039 / frame-threads=1 / numa-pools=16 / wpp / no-pmode / no-pme / no-psnr / no-ssim / log-level=2 / input-csp=1 / input-res=3840x2160 / interlace=0 / total-frames=0 / level-idc=50 / high-tier=0 / uhd-bd=0 / ref=3 / no-allow-non-conformance / repeat-headers / annexb / no-aud / no-hrd / info / hash=0 / no-temporal-layers / no-open-gop / min-keyint=48 / keyint=48 / gop-lookahead=0 / bframes=2 / b-adapt=1 / b-pyramid / bframe-bias=0 / rc-lookahead=48 / lookahead-slices=8 / scenecut=0 / hist-scenecut=0 / radl=0 / no-splice / no-intra-refresh / ctu=32 / min-cu-size=8 / no-rect / no-amp / max-tu-size=16 / tu-inter-depth=2 / tu-intra-depth=2 / limit-tu=0 / rdoq-level=1 / dynamic-rd=0.00 / no-ssim-rd / signhide / no-tskip / nr-intra=0 / nr-inter=0 / no-constrained-intra / no-strong-intra-smoothing / max-merge=3 / limit-refs=1 / no-limit-modes / me=1 / subme=2 / merange=44 / temporal-mvp / no-frame-dup / no-hme / weightp / no-weightb / no-analyze-src-pics / deblock=0:0 / no-sao / no-sao-non-deblock / rd=4 / selective-sao=0 / early-skip / rskip / no-fast-intra / no-tskip-fast / no-cu-lossless / b-intra / no-splitrd-skip / rdpenalty=1 / psy-rd=1.60 / psy-rdoq=5.00 / no-rd-refine / no-lossless / cbqpoffs=0 / crqpoffs=0 / rc=abr / bitrate=23000 / qcomp=0.75 / qpstep=4 / stats-write=0 / stats-read=0 / vbv-maxrate=25000 / vbv-bufsize=25000 / vbv-init=0.9 / ipratio=1.40 / pbratio=1.30 / aq-mode=3 / aq-strength=1.00 / no-cutree / zone-count=0 / no-strict-cbr / qg-size=32 / no-rc-grain / qpmax=69 / qpmin=0 / no-const-vbv / sar=1 / overscan=0 / videoformat=5 / range=0 / colorprim=9 / transfer=16 / colormatrix=9 / chromaloc=0 / display-window=0 / cll=0,0 / min-luma=0 / max-luma=1023 / log2-max-poc-lsb=8 / vui-timing-info / vui-hrd-info / slices=1 / no-opt-qp-pps / no-opt-ref-list-length-pps / no-multi-pass-opt-rps / scenecut-bias=0.00 / hist-threshold=0.01 / no-opt-cu-delta-qp / no-aq-motion / no-hdr10 / hdr10-opt / no-dhdr10-opt / no-idr-recovery-sei / analysis-reuse-level=0 / analysis-save-reuse-level=0 / analysis-load-reuse-level=0 / scale-factor=0 / refine-intra=0 / refine-inter=0 / refine-mv=1 / refine-ctu-distortion=0 / no-limit-sao / ctu-info=0 / no-lowpass-dct / refine-analysis-type=0 / copy-pic=1 / max-ausize-factor=1.0 / no-dynamic-refine / no-single-sei / no-hevc-aq / no-svt / no-field / qp-adaptation-range=1.00 / no-scenecut-aware-qpconformance-window-offsets / right=0 / bottom=0
Default                     : Yes
Forced                      : No
Color range                 : Limited
Color primaries             : BT.2020
Transfer characteristics    : PQ
Matrix coefficients         : BT.2020 non-constant

Audio
ID                          : 2
Format                      : E-AC-3 JOC
Format/Info                 : Enhanced AC-3 with Joint Object Coding
Commercial name             : Dolby Digital Plus with Dolby Atmos
Codec ID                    : A_EAC3
Duration                    : 1 h 42 min
Bit rate mode               : Constant
Bit rate                    : 768 kb/s
Channel(s)                  : 6 channels
Channel layout              : L R C LFE Ls Rs
Sampling rate               : 48.0 kHz
Frame rate                  : 31.250 FPS (1536 SPF)
Compression mode            : Lossy
Stream size                 : 561 MiB (3%)
Language                    : English
Service kind                : Complete Main
Default                     : Yes
Forced                      : No
Complexity index            : 16
Number of dynamic objects   : 15
Bed channel count           : 1 channel
Bed channel configuration   : LFE

Text #1
ID                          : 3
Format                      : UTF-8
Codec ID                    : S_TEXT/UTF8
Codec ID/Info               : UTF-8 Plain Text
Duration                    : 1 h 36 min
Bit rate                    : 71 b/s
Count of elements           : 1600
Stream size                 : 50.8 KiB (0%)
Language                    : English
Default                     : No
Forced                      : No

Text #2
ID                          : 4
Format                      : UTF-8
Codec ID                    : S_TEXT/UTF8
Codec ID/Info               : UTF-8 Plain Text
Duration                    : 1 h 36 min
Bit rate                    : 82 b/s
Count of elements           : 1838
Stream size                 : 58.0 KiB (0%)
Title                       : SDH
Language                    : English
Default                     : No
Forced                      : No

Text #3
ID                          : 5
Format                      : UTF-8
Codec ID                    : S_TEXT/UTF8
Codec ID/Info               : UTF-8 Plain Text
Duration                    : 1 h 40 min
Bit rate                    : 55 b/s
Count of elements           : 973
Stream size                 : 41.2 KiB (0%)
Language                    : Danish
Default                     : No
Forced                      : No

Text #4
ID                          : 6
Format                      : UTF-8
Codec ID                    : S_TEXT/UTF8
Codec ID/Info               : UTF-8 Plain Text
Duration                    : 1 h 40 min
Bit rate                    : 54 b/s
Count of elements           : 1292
Stream size                 : 40.3 KiB (0%)
Language                    : German
Default                     : No
Forced                      : No

Text #5
ID                          : 7
Format                      : UTF-8
Codec ID                    : S_TEXT/UTF8
Codec ID/Info               : UTF-8 Plain Text
Duration                    : 1 h 40 min
Bit rate                    : 58 b/s
Count of elements           : 1211
Stream size                 : 43.4 KiB (0%)
Title                       : Latin American
Language                    : Spanish
Default                     : No
Forced                      : No

Text #6
ID                          : 8
Format                      : UTF-8
Codec ID                    : S_TEXT/UTF8
Codec ID/Info               : UTF-8 Plain Text
Duration                    : 1 h 40 min
Bit rate                    : 53 b/s
Count of elements           : 1
Stream size                 : 39.3 KiB (0%)
Language                    : Spanish
Default                     : No
Forced                      : No

Text #7
ID                          : 9
Format                      : UTF-8
Codec ID                    : S_TEXT/UTF8
Codec ID/Info               : UTF-8 Plain Text
Duration                    : 1 h 40 min
Bit rate                    : 55 b/s
Count of elements           : 1208
Stream size                 : 40.7 KiB (0%)
Language                    : Finnish
Default                     : No
Forced                      : No

Text #8
ID                          : 10
Format                      : UTF-8
Codec ID                    : S_TEXT/UTF8
Codec ID/Info               : UTF-8 Plain Text
Duration                    : 1 h 40 min
Bit rate                    : 62 b/s
Count of elements           : 1259
Stream size                 : 46.1 KiB (0%)
Title                       : Canadian
Language                    : French
Default                     : No
Forced                      : No

Text #9
ID                          : 11
Format                      : UTF-8
Codec ID                    : S_TEXT/UTF8
Codec ID/Info               : UTF-8 Plain Text
Duration                    : 1 h 40 min
Bit rate                    : 54 b/s
Count of elements           : 1136
Stream size                 : 40.3 KiB (0%)
Language                    : French
Default                     : No
Forced                      : No

Text #10
ID                          : 12
Format                      : UTF-8
Codec ID                    : S_TEXT/UTF8
Codec ID/Info               : UTF-8 Plain Text
Duration                    : 1 h 40 min
Bit rate                    : 58 b/s
Count of elements           : 1212
Stream size                 : 43.5 KiB (0%)
Language                    : Icelandic
Default                     : No
Forced                      : No

Text #11
ID                          : 13
Format                      : UTF-8
Codec ID                    : S_TEXT/UTF8
Codec ID/Info               : UTF-8 Plain Text
Duration                    : 1 h 40 min
Bit rate                    : 56 b/s
Count of elements           : 1212
Stream size                 : 41.7 KiB (0%)
Language                    : Italian
Default                     : No
Forced                      : No

Text #12
ID                          : 14
Format                      : UTF-8
Codec ID                    : S_TEXT/UTF8
Codec ID/Info               : UTF-8 Plain Text
Duration                    : 1 h 40 min
Bit rate                    : 51 b/s
Count of elements           : 1296
Stream size                 : 38.1 KiB (0%)
Language                    : Japanese
Default                     : No
Forced                      : No

Text #13
ID                          : 15
Format                      : UTF-8
Codec ID                    : S_TEXT/UTF8
Codec ID/Info               : UTF-8 Plain Text
Duration                    : 1 h 30 min
Bit rate                    : 60 b/s
Count of elements           : 1220
Stream size                 : 40.1 KiB (0%)
Language                    : Korean
Default                     : No
Forced                      : No

Text #14
ID                          : 16
Format                      : UTF-8
Codec ID                    : S_TEXT/UTF8
Codec ID/Info               : UTF-8 Plain Text
Duration                    : 1 h 40 min
Bit rate                    : 45 b/s
Count of elements           : 1147
Stream size                 : 33.6 KiB (0%)
Language                    : Dutch
Default                     : No
Forced                      : No

Text #15
ID                          : 17
Format                      : UTF-8
Codec ID                    : S_TEXT/UTF8
Codec ID/Info               : UTF-8 Plain Text
Duration                    : 1 h 40 min
Bit rate                    : 53 b/s
Count of elements           : 1201
Stream size                 : 39.8 KiB (0%)
Language                    : Norwegian
Default                     : No
Forced                      : No

Text #16
ID                          : 18
Format                      : UTF-8
Codec ID                    : S_TEXT/UTF8
Codec ID/Info               : UTF-8 Plain Text
Duration                    : 1 h 40 min
Bit rate                    : 59 b/s
Count of elements           : 1201
Stream size                 : 43.6 KiB (0%)
Title                       : Brazilian
Language                    : Portuguese
Default                     : No
Forced                      : No

Text #17
ID                          : 19
Format                      : UTF-8
Codec ID                    : S_TEXT/UTF8
Codec ID/Info               : UTF-8 Plain Text
Duration                    : 1 h 40 min
Bit rate                    : 50 b/s
Count of elements           : 1179
Stream size                 : 36.9 KiB (0%)
Language                    : Portuguese
Default                     : No
Forced                      : No

Text #18
ID                          : 20
Format                      : UTF-8
Codec ID                    : S_TEXT/UTF8
Codec ID/Info               : UTF-8 Plain Text
Duration                    : 1 h 40 min
Bit rate                    : 45 b/s
Count of elements           : 1025
Stream size                 : 33.9 KiB (0%)
Language                    : Swedish
Default                     : No
Forced                      : No

Text #19
ID                          : 21
Format                      : UTF-8
Codec ID                    : S_TEXT/UTF8
Codec ID/Info               : UTF-8 Plain Text
Duration                    : 1 h 40 min
Bit rate                    : 44 b/s
Count of elements           : 1226
Stream size                 : 32.5 KiB (0%)
Title                       : Cantonese
Language                    : Chinese
Default                     : No
Forced                      : No

Text #20
ID                          : 22
Format                      : UTF-8
Codec ID                    : S_TEXT/UTF8
Codec ID/Info               : UTF-8 Plain Text
Duration                    : 1 h 40 min
Bit rate                    : 50 b/s
Count of elements           : 1225
Stream size                 : 36.9 KiB (0%)
Title                       : Simplified
Language                    : Chinese
Default                     : No
Forced                      : No

Text #21
ID                          : 23
Format                      : UTF-8
Codec ID                    : S_TEXT/UTF8
Codec ID/Info               : UTF-8 Plain Text
Duration                    : 1 h 40 min
Bit rate                    : 43 b/s
Count of elements           : 1241
Stream size                 : 31.7 KiB (0%)
Title                       : Traditional
Language                    : Chinese
Default                     : No
Forced                      : No

Menu
01:41:28.714                : en:Credits

视频截图

下载地址

Encanto.2021.2160p.WEB-DL.DDP5.1.Atmos.HDR.HEVC-TEPES 16.50GB:magnet:?xt=urn:btih:17FD4A00E9D47A442F1FD08414396E5B2707DB84

Encanto.2021.1080p.DSNP.WEBRip.DDP5.1.Atmos.x264-MZABI 5.79GB:magnet:?xt=urn:btih:AEC5444A785FF5876027555140E529D0951FD4A1

Encanto.2021.720p.DSNP.WEBRip.DDP5.1.Atmos.x264-MZABI 3.25GB:magnet:?xt=urn:btih:3CEF7DE90BD4C06A912598712818A0482B0CE921

Visits: 101

留下评论

LightDark
LightDark