[2021欧美动作][The Matrix Resurrections:黑客帝国:矩阵重启][中英字幕][WEB-mp4-1080P]

%title插图%num

◎译  名 黑客帝国:矩阵重启/22世纪杀人网络:复活次元(港)/骇客任务:复活(台)/骇客任务4/骇客帝国4/黑客帝国:复兴/黑客帝国4:矩阵重生
◎片  名 The Matrix Resurrections
◎年  代 2021
◎产  地 美国
◎类  别 动作 / 科幻
◎语  言 英语
◎上映日期 2021-12-22(美国) / 2022-01-14(中国大陆)
◎IMDB链接 https://www.imdb.com/title/tt10838180/
◎豆瓣评分 /10 from 0 users
◎豆瓣链接 https://movie.douban.com/subject/34801038/
◎片  长 147分钟
◎导  演 拉娜·沃卓斯基 Lana Wachowski
◎编  剧 拉娜·沃卓斯基 Lana Wachowski / 大卫·米切尔 David Mitchell / 亚历山大·赫蒙 Aleksandar Hemon
◎主  演 基努·里维斯 Keanu Reeves
      凯瑞-安·莫斯 Carrie-Anne Moss
      叶海亚·阿卜杜勒-迈丁 Yahya Abdul-Mateen II
      杰西卡·亨维克 Jessica Henwick
      乔纳森·格罗夫 Jonathan Groff
      ·帕特里克·哈里斯 Neil Patrick Harris
      佩丽冉卡·曹帕拉 Priyanka Chopra
      克里斯蒂娜·里奇 Christina Ricci
      特尔玛·霍普金斯 Telma Hopkins
      埃伦迪拉·伊瓦拉 Eréndira Ibarra
      托比·奥伍梅尔 Toby Onwumere
      马克思·雷迈特 Max Riemelt
      布莱恩·J·史密斯 Brian J. Smith
      贾达·萍克·史密斯 Jada Pinkett Smith
      丹尼尔·伯哈特 Daniel Bernhardt
      艾伦·霍尔曼 Ellen Hollman
      朗贝尔·维尔森 Lambert Wilson
      安德鲁·卡德威尔 Andrew Caldwell
      伊恩·皮里 Ian Pirie
      威廉·W·巴伯 William W. Barbour
      埃尔文·费利西达 Erwin Felicilda
      迈克尔·J·格温 Michael J. Gwynn
      Linda Joy Henry Linda Joy Henry
      约翰·洛巴托 John Lobato
      安妮-玛丽·奥尔森 Anne-Marie Olsen
      艾蒂安·维克 Etienne Vick
      克莱顿·华生 Clayton Watson
      詹姆斯·D·韦斯顿二世 James D. Weston II

◎标  签 科幻 | 黑客帝国 | 经典 | 美国 | 赛博朋克 | 动作 | 哲学 | 2021

◎简  介 

  尼奥(基努·里维斯 Keanu Reeves 饰)和崔妮蒂(凯瑞-安·莫斯 Carrie-Anne Moss 饰)重回矩阵:在这里,一个是矩阵创造出来,周而复始的日常世界,另一个则是隐藏其后,真实的人类世界。为了弄清楚自己所处的“现实”究竟是真是假,尼奥不得不再次做出选择……

◎获奖情况

  第7届豆瓣电影年度榜单 (2020)
  最值得期待的外语电影(提名)

视频信息

General
Complete name               : E:\[黑客帝国:矩阵重启]the.matrix.resurrections.2021.1080p.web.x265.AC3.CHS-ENG.BOBO\[黑客帝国:矩阵重启]the.matrix.resurrections.2021.1080p.web.x265.AC3.CHS-ENG.BOBO.mp4
Format                      : MPEG-4
Format profile              : Base Media
Codec ID                    : isom (isom/iso2/mp41)
File size                   : 7.45 GiB
Duration                    : 2 h 27 min
Overall bit rate            : 7 214 kb/s
Writing application         : ShanaEncoder

Video
ID                          : 1
Format                      : HEVC
Format/Info                 : High Efficiency Video Coding
Format profile              : Main 10@L4@Main
Codec ID                    : hev1
Codec ID/Info               : High Efficiency Video Coding
Duration                    : 2 h 27 min
Bit rate                    : 6 568 kb/s
Width                       : 1 920 pixels
Height                      : 1 080 pixels
Display aspect ratio        : 16:9
Frame rate mode             : Constant
Frame rate                  : 23.976 (24000/1001) FPS
Color space                 : YUV
Chroma subsampling          : 4:2:0
Bit depth                   : 10 bits
Bits/(Pixel*Frame)          : 0.132
Stream size                 : 6.79 GiB (91%)
Codec configuration box     : hvcC

Audio
ID                          : 2
Format                      : AC-3
Format/Info                 : Audio Coding 3
Commercial name             : Dolby Digital
Codec ID                    : ac-3
Duration                    : 2 h 27 min
Source duration             : 2 h 27 min
Bit rate mode               : Constant
Bit rate                    : 640 kb/s
Channel(s)                  : 6 channels
Channel layout              : L R C LFE Ls Rs
Sampling rate               : 48.0 kHz
Frame rate                  : 31.250 FPS (1536 SPF)
Compression mode            : Lossy
Stream size                 : 677 MiB (9%)
Source stream size          : 677 MiB (9%)
Language                    : English
Service kind                : Complete Main
Default                     : Yes
Alternate group             : 1
mdhd_Duration               : 8874875

视频截图

下载地址

[黑客帝国:矩阵重启]the.matrix.resurrections.2021.1080p.web.x265.AC3.CHS-ENG.BOBO 7.45GB(硬字幕):magnet:?xt=urn:btih:9226D6F5D8DDB5BC9913CB257024CD17630C6B9A

黑客帝国1-3.The.Matrix.1999-2003.BluRay.2160p.x265.10bit.HDR.mUHD-FRDS 76.46GB:magnet:?xt=urn:btih:8D6FDA1C9474DF1AF1B742B17182D62EF59BF0AF

黑客帝国动画版.The.Animatrix.2003.中英字幕.720p.BluRay.x264.AC3-圣城家园 1.54GB:magnet:?xt=urn:btih:7CBF79EAB94D158F4EA485C09881FE5FD9727DF6

Visits: 93

留下评论

LightDark
LightDark