[2021欧美剧情][The Last Duel:最后的决斗][中英字幕][BD-MKV-1080P]

%title插图%num

◎译  名 最后的决斗 / 最后的对决 / 终极决斗
◎片  名 The Last Duel
◎年  代 2021
◎产  地 美国 / 英国
◎类  别 剧情 /
◎语  言 英语
◎上映日期 2021-09-10(威尼斯电影节) / 2021-10-15(美国)
◎IMDb链接 https://www.imdb.com/title/tt4244994/
◎豆瓣评分 8.4/10 (14162人评价)
◎豆瓣链接 https://movie.douban.com/subject/34658290/
◎片  长 152分钟
◎导  演 雷德利·斯科特 Ridley Scott (id:1054416)
◎编  剧 本·阿弗莱克 Ben Affleck (id:1054417)
      马特·达蒙 Matt Damon (id:1054443)
      妮可·哈罗芬瑟 Nicole Holofcener (id:1000280)
      埃里克·贾格 Eric Jager (id:1431509)
◎演  员 朱迪·科默 Jodie Comer (id:1338497)
      马特·达蒙 Matt Damon (id:1054443)
      本·阿弗莱克 Ben Affleck (id:1054417)
      亚当·德赖弗 Adam Driver (id:1322327)
      哈丽特·瓦尔特 Harriet Walter (id:1162870)
      泽利科·伊万内克 Zeljko Ivanek (id:1027122)
      埃里克斯·劳瑟 Alex Lawther (id:1343731)
      内森奈尔·帕克 Nathaniel Parker (id:1045006)
      克里夫·罗素 Clive Russell (id:1036706)
      迈克尔·麦克埃尔哈顿 Michael McElhatton (id:1291550)
      山姆·哈兹尔丁 Sam Hazeldine (id:1332704)
      朱利安·弗思 Julian Firth (id:1079275)
      勃斯科·霍根 Bosco Hogan (id:1435378)
      卡伊姆赫·O’马莉 Caoimhe O’Malley (id:1443745)
      伊恩·皮里 Ian Pirie (id:1330287)
      柔伊·布鲁诺 Zoé Bruneau (id:1346464)
      保罗·班迪 Paul Bandey (id:1427440)
      布莱恩F.穆尔维 Brian F. Mulvey (id:1444571)
      詹妮弗·福克斯 Jennifer Fox (id:1284062)
      哈里·格雷格森-威廉姆斯 Harry Gregson-Williams (id:1056131)
      达瑞兹·沃斯基 Dariusz Wolski (id:1276296)

◎标  签 历史 / 剧情 / 美国 / 2021 / 战争 / 电影 / 动作 / 英国

◎简  介
  

根据中世纪法国最后一次经由战斗判决的真实故事改编而成。
在尚·德·卡鲁日(马特·达蒙 饰)的妻子玛格丽特(朱迪·科默 饰)指控贾克·勒·格里(亚当·德莱弗 饰)强奸后,骑士尚·德·卡鲁日向他的前朋友贾克·勒·格里斯发起决斗。
从多个“罗生门-式”的角度讲述。国王查尔斯六世宣布,尚·德·卡鲁日骑士向他的乡绅发起决斗,以解决与他的争端。

视频信息

General
Unique ID                   : 231164724473712880609030711873110669989 (0xADE8B4DCDB21B046F077AF9D1A09FAA5)
Complete name               : W:\【更多高清电影访问 www.mkvhome.com】最后的决斗[简繁字幕].The.Last.Duel.2021.1080p.BluRay.1080p.DTS-HD.MA7.1.x265.10bit-10011@MKVHome 9.73GB\The.Last.Duel.2021.1080p.BluRay.1080p.DTS-HD.MA7.1.x265.10bit-10011@MKVHome.mkv
Format                      : Matroska
Format version              : Version 4
File size                   : 9.73 GiB
Duration                    : 2 h 32 min
Overall bit rate mode       : Variable
Overall bit rate            : 9 125 kb/s
Encoded date                : UTC 2021-12-05 02:07:54
Writing application         : mkvmerge v49.0.0 ('Sick Of Losing Soulmates') 64-bit
Writing library             : libebml v1.4.0 + libmatroska v1.6.1

Video
ID                          : 1
Format                      : HEVC
Format/Info                 : High Efficiency Video Coding
Format profile              : Main 10@L5.1@High
Codec ID                    : V_MPEGH/ISO/HEVC
Duration                    : 2 h 32 min
Bit rate                    : 4 217 kb/s
Width                       : 1 920 pixels
Height                      : 804 pixels
Display aspect ratio        : 2.40:1
Frame rate mode             : Constant
Frame rate                  : 23.976 (24000/1001) FPS
Color space                 : YUV
Chroma subsampling          : 4:2:0
Bit depth                   : 10 bits
Bits/(Pixel*Frame)          : 0.114
Stream size                 : 4.50 GiB (46%)
Title                       : HEVC, x265Main10@L5.1@High, 24/1.001 fps @ 4216 kbps
Writing library             : x265 3.4+14-gd419c7152:[Windows][GCC 10.2.0][64 bit] 10bit
Encoding settings           : cpuid=1111039 / frame-threads=4 / numa-pools=16 / wpp / pmode / pme / no-psnr / no-ssim / log-level=2 / input-csp=1 / input-res=1920x804 / interlace=0 / total-frames=219697 / level-idc=51 / high-tier=1 / uhd-bd=0 / ref=5 / no-allow-non-conformance / no-repeat-headers / annexb / no-aud / no-hrd / info / hash=0 / no-temporal-layers / open-gop / min-keyint=24 / keyint=240 / gop-lookahead=0 / bframes=6 / b-adapt=2 / b-pyramid / bframe-bias=0 / rc-lookahead=40 / lookahead-slices=0 / scenecut=40 / hist-scenecut=0 / radl=0 / no-splice / no-intra-refresh / ctu=32 / min-cu-size=8 / no-rect / no-amp / max-tu-size=32 / tu-inter-depth=3 / tu-intra-depth=3 / limit-tu=4 / rdoq-level=2 / dynamic-rd=0.00 / no-ssim-rd / signhide / no-tskip / nr-intra=0 / nr-inter=0 / no-constrained-intra / no-strong-intra-smoothing / max-merge=4 / limit-refs=1 / limit-modes / me=3 / subme=4 / merange=25 / temporal-mvp / no-frame-dup / no-hme / weightp / weightb / no-analyze-src-pics / deblock=-3:-3 / no-sao / no-sao-non-deblock / rd=6 / selective-sao=0 / no-early-skip / rskip / no-fast-intra / no-tskip-fast / no-cu-lossless / b-intra / no-splitrd-skip / rdpenalty=0 / psy-rd=2.00 / psy-rdoq=1.00 / no-rd-refine / no-lossless / cbqpoffs=0 / crqpoffs=0 / rc=crf / crf=17.0 / qcomp=0.65 / qpstep=4 / stats-write=0 / stats-read=0 / vbv-maxrate=80000 / vbv-bufsize=80000 / vbv-init=0.9 / crf-max=0.0 / crf-min=0.0 / ipratio=1.40 / pbratio=1.30 / aq-mode=2 / aq-strength=0.85 / cutree / zone-count=0 / no-strict-cbr / qg-size=32 / no-rc-grain / qpmax=69 / qpmin=0 / no-const-vbv / sar=1 / overscan=0 / videoformat=5 / range=0 / colorprim=1 / transfer=1 / colormatrix=1 / chromaloc=0 / display-window=0 / cll=0,0 / min-luma=0 / max-luma=1023 / log2-max-poc-lsb=8 / vui-timing-info / vui-hrd-info / slices=1 / no-opt-qp-pps / no-opt-ref-list-length-pps / no-multi-pass-opt-rps / scenecut-bias=0.05 / hist-threshold=0.03 / no-opt-cu-delta-qp / no-aq-motion / no-hdr10 / no-hdr10-opt / no-dhdr10-opt / no-idr-recovery-sei / analysis-reuse-level=0 / analysis-save-reuse-level=0 / analysis-load-reuse-level=0 / scale-factor=0 / refine-intra=0 / refine-inter=0 / refine-mv=1 / refine-ctu-distortion=0 / no-limit-sao / ctu-info=0 / no-lowpass-dct / refine-analysis-type=0 / copy-pic=1 / max-ausize-factor=1.0 / no-dynamic-refine / no-single-sei / no-hevc-aq / no-svt / no-field / qp-adaptation-range=1.00 / no-scenecut-aware-qpconformance-window-offsets / right=0 / bottom=0 / decoder-max-rate=0
Language                    : English
Default                     : Yes
Forced                      : No
Color range                 : Limited
Color primaries             : BT.709
Transfer characteristics    : BT.709
Matrix coefficients         : BT.709

Audio
ID                          : 2
Format                      : DTS XLL
Format/Info                 : Digital Theater Systems
Commercial name             : DTS-HD Master Audio
Codec ID                    : A_DTS
Duration                    : 2 h 32 min
Bit rate mode               : Variable
Bit rate                    : 4 727 kb/s
Channel(s)                  : 8 channels
Channel layout              : C L R LFE Lb Rb Lss Rss
Sampling rate               : 48.0 kHz
Frame rate                  : 93.750 FPS (512 SPF)
Bit depth                   : 24 bits
Compression mode            : Lossless
Stream size                 : 5.04 GiB (52%)
Title                       : English DTS-HD Master Audio 7.1 @ 4727 kbps
Language                    : English
Default                     : Yes
Forced                      : No

Text #1
ID                          : 3
Format                      : PGS
Codec ID                    : S_HDMV/PGS
Codec ID/Info               : Picture based subtitle format used on BDs/HD-DVDs
Duration                    : 2 h 28 min
Bit rate                    : 41.7 kb/s
Count of elements           : 4336
Stream size                 : 44.4 MiB (0%)
Title                       : Eng/SUP
Language                    : English
Default                     : No
Forced                      : No

Text #2
ID                          : 4
Format                      : PGS
Codec ID                    : S_HDMV/PGS
Codec ID/Info               : Picture based subtitle format used on BDs/HD-DVDs
Duration                    : 2 h 31 min
Bit rate                    : 25.3 kb/s
Count of elements           : 3391
Stream size                 : 27.4 MiB (0%)
Title                       : Chs/SUP  简体
Language                    : Chinese
Default                     : Yes
Forced                      : No

Text #3
ID                          : 5
Format                      : PGS
Codec ID                    : S_HDMV/PGS
Codec ID/Info               : Picture based subtitle format used on BDs/HD-DVDs
Duration                    : 2 h 31 min
Bit rate                    : 25.8 kb/s
Count of elements           : 3391
Stream size                 : 28.0 MiB (0%)
Title                       : Cht/SUP  繁体
Language                    : Chinese
Default                     : No
Forced                      : No

Text #4
ID                          : 6
Format                      : PGS
Codec ID                    : S_HDMV/PGS
Codec ID/Info               : Picture based subtitle format used on BDs/HD-DVDs
Duration                    : 2 h 22 min
Bit rate                    : 45.8 kb/s
Count of elements           : 3388
Stream size                 : 46.8 MiB (0%)
Title                       : Chs/SUP  简英双语
Language                    : Chinese
Default                     : No
Forced                      : No

Text #5
ID                          : 7
Format                      : PGS
Codec ID                    : S_HDMV/PGS
Codec ID/Info               : Picture based subtitle format used on BDs/HD-DVDs
Duration                    : 2 h 22 min
Bit rate                    : 46.3 kb/s
Count of elements           : 3388
Stream size                 : 47.4 MiB (0%)
Title                       : Cht/SUP  繁英双语
Language                    : Chinese
Default                     : No
Forced                      : No

Menu
00:00:00.000                : en:第 01 章
00:05:02.052                : en:第 02 章
00:09:42.457                : en:第 03 章
00:17:43.646                : en:第 04 章
00:25:59.933                : en:第 05 章
00:33:25.295                : en:第 06 章
00:38:51.371                : en:第 07 章
00:42:34.594                : en:第 08 章
00:54:23.510                : en:第 09 章
01:05:52.490                : en:第 10 章
01:17:07.456                : en:第 11 章
01:25:24.703                : en:第 12 章
01:32:50.273                : en:第 13 章
01:40:17.178                : en:第 14 章
01:52:06.720                : en:第 15 章
02:05:28.521                : en:第 16 章
02:22:25.537                : en:第 17 章

视频截图

下载地址

最后的决斗[简繁字幕].The.Last.Duel.2021.1080p.BluRay.1080p.DTS-HD.MA7.1.x265.10bit-10011@MKVHome 9.73GB:magnet:?xt=urn:btih:6317397FA694B96D4623A9E61246CB8D4E23F227

最后的决斗[中文字幕].The.Last.Duel.2021.2160p.WEB-DL.HDR.HEVC.Atmos.DDP5.1-10010@MKVChina 16.25GB:magnet:?xt=urn:btih:666961890CE28CA378BA13AB097772FDE9C944F2

最后的决斗.官译简繁中英.中文.英文字幕.The.Last.Duel.2021.1080p.WEBRip.DD5.1.x264-纯净版 5.81GB:magnet:?xt=urn:btih:2E16E5431DBE66A9352B7686DFEA08AB7A44FF2A

Visits: 44

留下评论

LightDark
LightDark