[2021大陆纪录片][1950他们正年轻][国语配音/中文字幕][WEB-MKV-2160P(4K)]

%title插图%num

◎译  名 1950他们正年轻 / Remembering 1950
◎年  代 2021
◎产  地 中国大陆
◎类  别 纪录片
◎语  言 汉语普通话
◎上映日期 2021-09-03(中国大陆)
◎IMDb链接 https://www.imdb.com/title/tt15386758/
◎豆瓣评分 8.9/10 (23234人评价)
◎豆瓣链接 https://movie.douban.com/subject/35470753/
◎片  长 98分钟
◎导  演 宋坤儒 Kunru Song (id:1398912)
◎编  剧 宋坤儒 Kunru Song (id:1398912)
      李牧 Mu Li (id:1457214)
◎演  员 任红举 Hongju Ren (id:1428114)
      周有春 Youchun Zhou (id:1461711)
      马世勋 Shixun Ma (id:1461712)
      周继成 Jicheng Zhou (id:1461713)
      薛英杰 Yingjie Xue (id:1461714)
      汤重稀 Chongxi Tang (id:1461715)
      包月禄 Yuelu Bao (id:1461716)
      王贯三 Guansan Wang (id:1461717)
      郭瑞铮 Ruizheng Guo (id:1461718)
      雍卫太 Weitai Yong (id:1461719)
      李维波 Weibo Li (id:1461720)
      王仁山 Renshan Wang (id:1461721)
      谈学贤 Xuexian Tan (id:1461722)
      叶发坤 Fakun Ye (id:1461723)
      孙德山 Deshan Sun (id:1461724)
      唐章洪 Zhanghong Tang (id:1461725)
      那启明 Qiming Na (id:1461726)
      林炳远 Bingyuan Lin (id:1461727)
      金东辉 Donghui Jin (id:1461728)
      刘素谦 Suqian Liu (id:1461729)
      熊朝瑞 Zhaorui Xiong (id:1461730)
      白清林 Qinglin Bai (id:1461731)
      易如元 Ruyuan Yi (id:1461732)
      周全弟 Quandi Zhou (id:1461733)
      尹志云 Zhiyun Yin (id:1461734)
      叶士礼 Shili Ye (id:1461735)
      王媛媛 (id:1457215)
      陈志国 (id:1457216)
      黄威 (id:1457217)
      井水清 (id:1457894)
      刘仕儒 (id:1457895)
      饶晓志 Xiaozhi Rao (id:1326752)
      马中骏 Zhongjun Ma (id:1369697)
      常洪松 Hongsong Chang (id:1416496)
      陈盼盼 (id:1457896)
      李文飞 (id:1457897)
      李思叡 (id:1457898)
      郑诗恒 (id:1457899)
      宋坤儒 Kunru Song (id:1398912)
      吴叶恒 (id:1457901)
      吴世春 (id:1461079)
      郎永淳 Yongchun Lang (id:1374064)
      李桓 (id:1461080)
      刘庆生 (id:1461081)
      辛娜 (id:1457221)
      黄玉坤 (id:1457218)
      邝文钧 (id:1457219)
      李牧 Mu Li (id:1457214)
      宋坤儒 Kunru Song (id:1398912)
      杨欧 (id:1457220)
      路达 (id:1457900)

◎标  签 抗美援朝 / 纪录片 / 致敬 / 历史 / 红色电影 / 主旋律 / 2021 / 献礼片

◎简  介
  2014年,首批437具中国志愿军烈士遗骸归国,离开祖国60多年的烈士英灵终于得以回家。71年前,那些花一样年轻的战士走上了抗美援朝战场,有些人回来了,而有些人永远地留在了那片土地上。《1950他们正年轻》用全新的视角聚焦71年前参加抗美援朝的普通年轻人,通过不同军种,不同时期参战的老兵真人讲述,以一句句平实细微的话语呈现出他们曾经热血的青春与梦想,也还原了最真实的战场,给当代的年轻人带来触动内心的震撼与共鸣。最好的铭记是不遗忘,《1950他们正年轻》用镜头记录珍贵的民族记忆,一起致敬那些保家卫国的英雄们。

视频信息

General
Unique ID                   : 288830638914639005250218432867627524777 (0xD94AC1F450F571DDEC6740A8A9FD62A9)
Complete name               : E:\DSfile\[ 高清电影之家 mkvhome.com ]1950他们正年轻[国语配音+中文字幕].Remembering.1950.2021.2160p.WEB-DL.DDP5.1.H265-ce@MKVHome 10.93GB\Remembering.1950.2021.2160p.WEB-DL.DDP5.1.H265-ce@MKVHome.mkv
Format                      : Matroska
Format version              : Version 4
File size                   : 10.9 GiB
Duration                    : 1 h 37 min
Overall bit rate            : 16.1 Mb/s
Encoded date                : UTC 2021-12-28 15:10:04
Writing application         : mkvmerge v47.0.0 ('Black Flag') 64-bit
Writing library             : libebml v1.3.10 + libmatroska v1.5.2

Video
ID                          : 1
Format                      : HEVC
Format/Info                 : High Efficiency Video Coding
Format profile              : Main@L5@Main
Codec ID                    : V_MPEGH/ISO/HEVC
Duration                    : 1 h 37 min
Bit rate                    : 15.6 Mb/s
Width                       : 3 840 pixels
Height                      : 2 072 pixels
Display aspect ratio        : 1.85:1
Frame rate mode             : Constant
Frame rate                  : 24.000 FPS
Color space                 : YUV
Chroma subsampling          : 4:2:0
Bit depth                   : 8 bits
Bits/(Pixel*Frame)          : 0.082
Stream size                 : 10.6 GiB (97%)
Default                     : Yes
Forced                      : No

Audio #1
ID                          : 2
Format                      : AAC LC
Format/Info                 : Advanced Audio Codec Low Complexity
Codec ID                    : A_AAC-2
Duration                    : 1 h 37 min
Bit rate                    : 192 kb/s
Channel(s)                  : 2 channels
Channel layout              : L R
Sampling rate               : 44.1 kHz
Frame rate                  : 43.066 FPS (1024 SPF)
Compression mode            : Lossy
Stream size                 : 132 MiB (1%)
Default                     : Yes
Forced                      : No

Audio #2
ID                          : 3
Format                      : E-AC-3
Format/Info                 : Enhanced AC-3
Commercial name             : Dolby Digital Plus
Codec ID                    : A_EAC3
Duration                    : 1 h 37 min
Bit rate mode               : Constant
Bit rate                    : 256 kb/s
Channel(s)                  : 6 channels
Channel layout              : L R C LFE Ls Rs
Sampling rate               : 48.0 kHz
Frame rate                  : 31.250 FPS (1536 SPF)
Compression mode            : Lossy
Stream size                 : 178 MiB (2%)
Title                       : DD5.1
Service kind                : Complete Main
Default                     : No
Forced                      : No

视频截图

下载地址

1950他们正年轻[国语配音+中文字幕].Remembering.1950.2021.2160p.WEB-DL.DDP5.1.H265-ce@MKVHome 10.93GB:magnet:?xt=urn:btih:2DF8B1EF3C3D7EE1C345203B7512EDDBEE8FB249

1950他们正年轻[国语配音+中文字幕].Remembering.1950.2021.1080p.WEB-DL.DDP5.1.H265-ce@MKVHome 3.05GB:magnet:?xt=urn:btih:9A08277AC17A4E71496D400F10AAF9A9A79D0C67

Visits: 35

留下评论

LightDark
LightDark