[2021英国剧情科幻]《Finch:芬奇/生化》[官译简繁英多语字幕][WEB-MKV-1080p]

%title插图%num

◎译  名 芬奇 / 生化 / 人生 / BIOS / 芬奇的旅程
◎片  名 Finch
◎年  代 2021
◎产  地 英国 / 美国
◎类  别 剧情 / 科幻
◎语  言 英语
◎字  幕   官译简繁英多语字幕
◎上映日期 2021-11-05(美国)
◎IMDb链接   https://www.imdb.com/title/tt3420504/
◎豆瓣评分 8.2/10 from 3260 users
◎豆瓣链接 https://movie.douban.com/subject/26897885/
◎片  长 115分钟
◎导  演 米格尔·萨普什尼克 / Miguel Sapochnik
◎演  员 汤姆·汉克斯 / Tom Hanks | 饰 Finch
      卡赖伯·兰德里·琼斯 / Caleb Landry Jones | 饰 Jeff
      洛拉·玛汀内斯-康宁安 / Lora Martinez-Cunningham | 饰 Mother
      玛丽·瓦根曼 / Marie Wagenman | 饰 Daughter
      斯基特·乌尔里奇 / Skeet Ulrich
      萨米拉·威利 / Samira Wiley
◎编  剧 克雷格·勒克 / Craig Luck

◎标  签 科幻 | 汤姆·汉克斯 | 美国 | 2021 | 美国电影 | Tom·Hanks | 电影 | 环球

◎简  介

汤姆·汉克斯将出演科幻新片《Bios》,《权力的游戏》《豪斯医生》导演Miguel Sapochnik执导,Craig Luck(《奇异博士》《碟中谍5》)和Ivor Powell(《异形》《银翼杀手》)操刀剧本。罗伯特·泽米吉斯、凯文·米舍担任制片人。汉克斯将饰演发明家,预计2018年第一季度开拍。设定在后世界末日的地球上,一位濒死的发明家打造了一个机器人,来保护他心爱的狗。在这一旅程中,机器人懂得了爱、友谊以及人类生活的意义。

视频信息

General
Unique ID                      : 48509960973090566358991185674830802290 (0x247EADBB9B848569412E902F5456ED72)
Complete name                  : W:\追光寻影(zgxybbs.fdns.uk)芬奇.官译简繁英中文字幕.Finch.2021.1080p.ATVP.WEB-DL.DDP5.1.Atmos.H.264-纯净版\追光寻影(zgxybbs.fdns.uk)芬奇.官译简繁英中文字幕.Finch.2021.1080p.ATVP.WEB-DL.DDP5.1.Atmos.H.264-纯净版.mkv
Format                         : Matroska
Format version                 : Version 4
File size                      : 8.75 GiB
Duration                       : 1 h 55 min
Overall bit rate               : 10.8 Mb/s
Writing application            : mkvmerge v62.0.0 ('Apollo') 64-bit
Writing library                : libebml v1.4.2 + libmatroska v1.6.4

Video
ID                             : 1
Format                         : AVC
Format/Info                    : Advanced Video Codec
Format profile                 : High@L4
Format settings                : CABAC / 5 Ref Frames
Format settings, CABAC         : Yes
Format settings, Reference fra : 5 frames
Codec ID                       : V_MPEG4/ISO/AVC
Duration                       : 1 h 55 min
Bit rate                       : 10.1 Mb/s
Width                          : 1 920 pixels
Height                         : 804 pixels
Display aspect ratio           : 2.40:1
Frame rate mode                : Constant
Frame rate                     : 23.976 (24000/1001) FPS
Color space                    : YUV
Chroma subsampling             : 4:2:0
Bit depth                      : 8 bits
Scan type                      : Progressive
Bits/(Pixel*Frame)             : 0.272
Stream size                    : 8.13 GiB (93%)
Language                       : English
Default                        : Yes
Forced                         : No
Color range                    : Limited
Color primaries                : BT.709
Transfer characteristics       : BT.709
Matrix coefficients            : BT.709

Audio
ID                             : 2
Format                         : E-AC-3 JOC
Format/Info                    : Enhanced AC-3 with Joint Object Coding
Commercial name                : Dolby Digital Plus with Dolby Atmos
Codec ID                       : A_EAC3
Duration                       : 1 h 55 min
Bit rate mode                  : Constant
Bit rate                       : 768 kb/s
Channel(s)                     : 6 channels
Channel layout                 : L R C LFE Ls Rs
Sampling rate                  : 48.0 kHz
Frame rate                     : 31.250 FPS (1536 SPF)
Compression mode               : Lossy
Stream size                    : 635 MiB (7%)
Language                       : English
Service kind                   : Complete Main
Default                        : Yes
Forced                         : No
Complexity index               : 16
Number of dynamic objects      : 15
Bed channel count              : 1 channel
Bed channel configuration      : LFE

Text #1
ID                             : 3
Format                         : UTF-8
Codec ID                       : S_TEXT/UTF8
Codec ID/Info                  : UTF-8 Plain Text
Bit rate                       : 0 b/s
Count of elements              : 0
Stream size                    : 0.00 Byte (0%)
Title                          : Forced
Language                       : English
Default                        : Yes
Forced                         : Yes

Text #2
ID                             : 4
Format                         : UTF-8
Codec ID                       : S_TEXT/UTF8
Codec ID/Info                  : UTF-8 Plain Text
Duration                       : 1 h 45 min
Bit rate                       : 35 b/s
Count of elements              : 986
Stream size                    : 27.5 KiB (0%)
Language                       : English
Default                        : No
Forced                         : No

Text #3
ID                             : 5
Format                         : UTF-8
Codec ID                       : S_TEXT/UTF8
Codec ID/Info                  : UTF-8 Plain Text
Duration                       : 1 h 47 min
Bit rate                       : 41 b/s
Count of elements              : 1210
Stream size                    : 32.6 KiB (0%)
Title                          : SDH
Language                       : English
Default                        : No
Forced                         : No

Text #4
ID                             : 6
Format                         : UTF-8
Codec ID                       : S_TEXT/UTF8
Codec ID/Info                  : UTF-8 Plain Text
Duration                       : 1 h 53 min
Bit rate                       : 48 b/s
Count of elements              : 1036
Stream size                    : 40.5 KiB (0%)
Language                       : Arabic
Default                        : No
Forced                         : No

Text #5
ID                             : 7
Format                         : UTF-8
Codec ID                       : S_TEXT/UTF8
Codec ID/Info                  : UTF-8 Plain Text
Duration                       : 1 h 53 min
Bit rate                       : 51 b/s
Count of elements              : 1017
Stream size                    : 42.8 KiB (0%)
Language                       : Bulgarian
Default                        : No
Forced                         : No

Text #6
ID                             : 8
Format                         : UTF-8
Codec ID                       : S_TEXT/UTF8
Codec ID/Info                  : UTF-8 Plain Text
Duration                       : 1 h 53 min
Bit rate                       : 30 b/s
Count of elements              : 1037
Stream size                    : 25.1 KiB (0%)
Title                          : Simplified
Language                       : Chinese
Default                        : No
Forced                         : No

Text #7
ID                             : 9
Format                         : UTF-8
Codec ID                       : S_TEXT/UTF8
Codec ID/Info                  : UTF-8 Plain Text
Duration                       : 1 h 53 min
Bit rate                       : 31 b/s
Count of elements              : 1039
Stream size                    : 26.2 KiB (0%)
Title                          : Traditional
Language                       : Chinese
Default                        : No
Forced                         : No

Text #8
ID                             : 10
Format                         : UTF-8
Codec ID                       : S_TEXT/UTF8
Codec ID/Info                  : UTF-8 Plain Text
Duration                       : 1 h 53 min
Bit rate                       : 32 b/s
Count of elements              : 996
Stream size                    : 27.0 KiB (0%)
Language                       : Czech
Default                        : No
Forced                         : No

Text #9
ID                             : 11
Format                         : UTF-8
Codec ID                       : S_TEXT/UTF8
Codec ID/Info                  : UTF-8 Plain Text
Duration                       : 1 h 53 min
Bit rate                       : 31 b/s
Count of elements              : 852
Stream size                    : 25.8 KiB (0%)
Language                       : Danish
Default                        : No
Forced                         : No

Text #10
ID                             : 12
Format                         : UTF-8
Codec ID                       : S_TEXT/UTF8
Codec ID/Info                  : UTF-8 Plain Text
Duration                       : 1 h 47 min
Bit rate                       : 37 b/s
Count of elements              : 1038
Stream size                    : 29.2 KiB (0%)
Language                       : German
Default                        : No
Forced                         : No

Text #11
ID                             : 13
Format                         : UTF-8
Codec ID                       : S_TEXT/UTF8
Codec ID/Info                  : UTF-8 Plain Text
Duration                       : 1 h 53 min
Bit rate                       : 57 b/s
Count of elements              : 1019
Stream size                    : 48.0 KiB (0%)
Language                       : Greek
Default                        : No
Forced                         : No

Text #12
ID                             : 14
Format                         : UTF-8
Codec ID                       : S_TEXT/UTF8
Codec ID/Info                  : UTF-8 Plain Text
Duration                       : 1 h 53 min
Bit rate                       : 34 b/s
Count of elements              : 1009
Stream size                    : 28.3 KiB (0%)
Title                          : Latin American
Language                       : Spanish
Default                        : No
Forced                         : No

Text #13
ID                             : 15
Format                         : UTF-8
Codec ID                       : S_TEXT/UTF8
Codec ID/Info                  : UTF-8 Plain Text
Duration                       : 1 h 53 min
Bit rate                       : 36 b/s
Count of elements              : 1000
Stream size                    : 30.3 KiB (0%)
Language                       : Spanish
Default                        : No
Forced                         : No

Text #14
ID                             : 16
Format                         : UTF-8
Codec ID                       : S_TEXT/UTF8
Codec ID/Info                  : UTF-8 Plain Text
Duration                       : 1 h 53 min
Bit rate                       : 32 b/s
Count of elements              : 981
Stream size                    : 27.3 KiB (0%)
Language                       : Estonian
Default                        : No
Forced                         : No

Text #15
ID                             : 17
Format                         : UTF-8
Codec ID                       : S_TEXT/UTF8
Codec ID/Info                  : UTF-8 Plain Text
Duration                       : 1 h 53 min
Bit rate                       : 32 b/s
Count of elements              : 998
Stream size                    : 27.2 KiB (0%)
Language                       : Finnish
Default                        : No
Forced                         : No

Text #16
ID                             : 18
Format                         : UTF-8
Codec ID                       : S_TEXT/UTF8
Codec ID/Info                  : UTF-8 Plain Text
Duration                       : 1 h 48 min
Bit rate                       : 33 b/s
Count of elements              : 1150
Stream size                    : 26.5 KiB (0%)
Title                          : Canadian
Language                       : French
Default                        : No
Forced                         : No

Text #17
ID                             : 19
Format                         : UTF-8
Codec ID                       : S_TEXT/UTF8
Codec ID/Info                  : UTF-8 Plain Text
Duration                       : 1 h 48 min
Bit rate                       : 33 b/s
Count of elements              : 1150
Stream size                    : 26.5 KiB (0%)
Language                       : French
Default                        : No
Forced                         : No

Text #18
ID                             : 20
Format                         : UTF-8
Codec ID                       : S_TEXT/UTF8
Codec ID/Info                  : UTF-8 Plain Text
Duration                       : 1 h 53 min
Bit rate                       : 46 b/s
Count of elements              : 1037
Stream size                    : 39.1 KiB (0%)
Language                       : Hebrew
Default                        : No
Forced                         : No

Text #19
ID                             : 21
Format                         : UTF-8
Codec ID                       : S_TEXT/UTF8
Codec ID/Info                  : UTF-8 Plain Text
Duration                       : 1 h 53 min
Bit rate                       : 96 b/s
Count of elements              : 1039
Stream size                    : 80.6 KiB (0%)
Language                       : Hindi
Default                        : No
Forced                         : No

Text #20
ID                             : 22
Format                         : UTF-8
Codec ID                       : S_TEXT/UTF8
Codec ID/Info                  : UTF-8 Plain Text
Duration                       : 1 h 53 min
Bit rate                       : 32 b/s
Count of elements              : 1022
Stream size                    : 27.0 KiB (0%)
Language                       : Hungarian
Default                        : No
Forced                         : No

Text #21
ID                             : 23
Format                         : UTF-8
Codec ID                       : S_TEXT/UTF8
Codec ID/Info                  : UTF-8 Plain Text
Duration                       : 1 h 53 min
Bit rate                       : 32 b/s
Count of elements              : 1023
Stream size                    : 27.1 KiB (0%)
Language                       : Indonesian
Default                        : No
Forced                         : No

Text #22
ID                             : 24
Format                         : UTF-8
Codec ID                       : S_TEXT/UTF8
Codec ID/Info                  : UTF-8 Plain Text
Duration                       : 1 h 47 min
Bit rate                       : 38 b/s
Count of elements              : 1025
Stream size                    : 30.2 KiB (0%)
Language                       : Italian
Default                        : No
Forced                         : No

Text #23
ID                             : 25
Format                         : UTF-8
Codec ID                       : S_TEXT/UTF8
Codec ID/Info                  : UTF-8 Plain Text
Duration                       : 1 h 53 min
Bit rate                       : 35 b/s
Count of elements              : 949
Stream size                    : 29.6 KiB (0%)
Language                       : Japanese
Default                        : No
Forced                         : No

Text #24
ID                             : 26
Format                         : UTF-8
Codec ID                       : S_TEXT/UTF8
Codec ID/Info                  : UTF-8 Plain Text
Duration                       : 1 h 53 min
Bit rate                       : 37 b/s
Count of elements              : 1038
Stream size                    : 31.1 KiB (0%)
Language                       : Korean
Default                        : No
Forced                         : No

Text #25
ID                             : 27
Format                         : UTF-8
Codec ID                       : S_TEXT/UTF8
Codec ID/Info                  : UTF-8 Plain Text
Duration                       : 1 h 53 min
Bit rate                       : 33 b/s
Count of elements              : 1007
Stream size                    : 27.9 KiB (0%)
Language                       : Lithuanian
Default                        : No
Forced                         : No

Text #26
ID                             : 28
Format                         : UTF-8
Codec ID                       : S_TEXT/UTF8
Codec ID/Info                  : UTF-8 Plain Text
Duration                       : 1 h 53 min
Bit rate                       : 35 b/s
Count of elements              : 1030
Stream size                    : 29.4 KiB (0%)
Language                       : Latvian
Default                        : No
Forced                         : No

Text #27
ID                             : 29
Format                         : UTF-8
Codec ID                       : S_TEXT/UTF8
Codec ID/Info                  : UTF-8 Plain Text
Duration                       : 1 h 53 min
Bit rate                       : 33 b/s
Count of elements              : 1024
Stream size                    : 27.6 KiB (0%)
Language                       : Malay
Default                        : No
Forced                         : No

Text #28
ID                             : 30
Format                         : UTF-8
Codec ID                       : S_TEXT/UTF8
Codec ID/Info                  : UTF-8 Plain Text
Duration                       : 1 h 53 min
Bit rate                       : 31 b/s
Count of elements              : 990
Stream size                    : 26.5 KiB (0%)
Language                       : Norwegian Bokmal
Default                        : No
Forced                         : No

Text #29
ID                             : 31
Format                         : UTF-8
Codec ID                       : S_TEXT/UTF8
Codec ID/Info                  : UTF-8 Plain Text
Duration                       : 1 h 53 min
Bit rate                       : 32 b/s
Count of elements              : 995
Stream size                    : 27.0 KiB (0%)
Language                       : Dutch
Default                        : No
Forced                         : No

Text #30
ID                             : 32
Format                         : UTF-8
Codec ID                       : S_TEXT/UTF8
Codec ID/Info                  : UTF-8 Plain Text
Duration                       : 1 h 53 min
Bit rate                       : 32 b/s
Count of elements              : 997
Stream size                    : 27.0 KiB (0%)
Language                       : Polish
Default                        : No
Forced                         : No

Text #31
ID                             : 33
Format                         : UTF-8
Codec ID                       : S_TEXT/UTF8
Codec ID/Info                  : UTF-8 Plain Text
Duration                       : 1 h 53 min
Bit rate                       : 33 b/s
Count of elements              : 1021
Stream size                    : 28.3 KiB (0%)
Language                       : Portuguese
Default                        : No
Forced                         : No

Text #32
ID                             : 34
Format                         : UTF-8
Codec ID                       : S_TEXT/UTF8
Codec ID/Info                  : UTF-8 Plain Text
Duration                       : 1 h 53 min
Bit rate                       : 32 b/s
Count of elements              : 1020
Stream size                    : 27.3 KiB (0%)
Title                          : Brazilian
Language                       : Portuguese
Default                        : No
Forced                         : No

Text #33
ID                             : 35
Format                         : UTF-8
Codec ID                       : S_TEXT/UTF8
Codec ID/Info                  : UTF-8 Plain Text
Duration                       : 1 h 53 min
Bit rate                       : 54 b/s
Count of elements              : 1044
Stream size                    : 45.8 KiB (0%)
Language                       : Russian
Default                        : No
Forced                         : No

Text #34
ID                             : 36
Format                         : UTF-8
Codec ID                       : S_TEXT/UTF8
Codec ID/Info                  : UTF-8 Plain Text
Duration                       : 1 h 53 min
Bit rate                       : 32 b/s
Count of elements              : 1023
Stream size                    : 27.3 KiB (0%)
Language                       : Slovak
Default                        : No
Forced                         : No

Text #35
ID                             : 37
Format                         : UTF-8
Codec ID                       : S_TEXT/UTF8
Codec ID/Info                  : UTF-8 Plain Text
Duration                       : 1 h 53 min
Bit rate                       : 28 b/s
Count of elements              : 986
Stream size                    : 24.1 KiB (0%)
Language                       : Slovenian
Default                        : No
Forced                         : No

Text #36
ID                             : 38
Format                         : UTF-8
Codec ID                       : S_TEXT/UTF8
Codec ID/Info                  : UTF-8 Plain Text
Duration                       : 1 h 53 min
Bit rate                       : 35 b/s
Count of elements              : 939
Stream size                    : 29.2 KiB (0%)
Language                       : Swedish
Default                        : No
Forced                         : No

Text #37
ID                             : 39
Format                         : UTF-8
Codec ID                       : S_TEXT/UTF8
Codec ID/Info                  : UTF-8 Plain Text
Duration                       : 1 h 53 min
Bit rate                       : 110 b/s
Count of elements              : 1037
Stream size                    : 92.0 KiB (0%)
Language                       : Tamil
Default                        : No
Forced                         : No

Text #38
ID                             : 40
Format                         : UTF-8
Codec ID                       : S_TEXT/UTF8
Codec ID/Info                  : UTF-8 Plain Text
Duration                       : 1 h 53 min
Bit rate                       : 93 b/s
Count of elements              : 1037
Stream size                    : 77.6 KiB (0%)
Language                       : Telugu
Default                        : No
Forced                         : No

Text #39
ID                             : 41
Format                         : UTF-8
Codec ID                       : S_TEXT/UTF8
Codec ID/Info                  : UTF-8 Plain Text
Duration                       : 1 h 53 min
Bit rate                       : 75 b/s
Count of elements              : 1037
Stream size                    : 63.2 KiB (0%)
Language                       : Thai
Default                        : No
Forced                         : No

Text #40
ID                             : 42
Format                         : UTF-8
Codec ID                       : S_TEXT/UTF8
Codec ID/Info                  : UTF-8 Plain Text
Duration                       : 1 h 53 min
Bit rate                       : 34 b/s
Count of elements              : 1020
Stream size                    : 29.0 KiB (0%)
Language                       : Turkish
Default                        : No
Forced                         : No

Text #41
ID                             : 43
Format                         : UTF-8
Codec ID                       : S_TEXT/UTF8
Codec ID/Info                  : UTF-8 Plain Text
Duration                       : 1 h 53 min
Bit rate                       : 52 b/s
Count of elements              : 1035
Stream size                    : 44.0 KiB (0%)
Language                       : Ukrainian
Default                        : No
Forced                         : No

Text #42
ID                             : 44
Format                         : UTF-8
Codec ID                       : S_TEXT/UTF8
Codec ID/Info                  : UTF-8 Plain Text
Duration                       : 1 h 53 min
Bit rate                       : 42 b/s
Count of elements              : 1023
Stream size                    : 35.4 KiB (0%)
Language                       : Vietnamese
Default                        : No
Forced                         : No

Text #43
ID                             : 45
Format                         : UTF-8
Codec ID                       : S_TEXT/UTF8
Codec ID/Info                  : UTF-8 Plain Text
Duration                       : 1 h 53 min
Bit rate                       : 32 b/s
Count of elements              : 1039
Stream size                    : 26.8 KiB (0%)
Title                          : Cantonese
Language                       : Chinese
Default                        : No
Forced                         : No

视频截图

下载地址

芬奇.官译简繁英中文字幕.Finch.2021.1080p.ATVP.WEB-DL.DDP5.1.Atmos.H.264-纯净版 8.76GB:magnet:?xt=urn:btih:5B757C6A1C354632350CD24604867DCBFF7C0DCA

留下评论

Secured By miniOrange