[2021美国纪录][The Beatles: Get Back:披头士乐队:回归 第一季][官译多国字幕][WEB-DL-MKV-1080P/2160P(4k)]

%title插图%num

◎译  名 披头士乐队:回归/披头四:狂热回归(港)
◎片  名 The Beatles: Get Back
◎年  代 2021
◎产  地 英国,新西兰,美国
◎类  别 纪录片 /
◎语  言 英语
◎上映日期 2021-11-25(美国网络)
◎IMDb链接  https://www.imdb.com/title/tt9735318/
◎豆瓣评分 9.6/10 from 584 users
◎豆瓣链接 https://movie.douban.com/subject/30466797/
◎导  演 彼得·杰克逊 Peter Jackson
◎主  演 约翰·列侬 John Lennon
       保罗·麦卡特尼 Paul McCartney
       林戈·斯塔尔 Ringo Starr
       乔治·哈里逊 George Harrison
       Mal Evans Mal Evans
       迈克尔·林赛-霍格 Michael Lindsay-Hogg
       乔治·马丁 George Martin
       Heather McCartney Heather McCartney
       琳达·麦卡特尼 Linda McCartney
       小野洋子 Yoko Ono
       比利·普林斯顿 Billy Preston
       莫琳·斯塔基 Maureen Starkey
◎标  签 TheBeatles | 纪录片 | Beatles | 音乐 | 英国电影 | 电影 | 彼得杰克逊 | PeterJackson
◎简  介

  《指环王》导演彼得·杰克逊打造的披头士新纪录片《The Beatles:Get Back》要推出了。迪士尼前CEO、现董事会执行主席Bob Iger在年度股东大会上宣布:该片定档于9月4日北美上映。

  此前该片透露的信息是:记录的是披头士如何录制出经典名曲&专辑《Let It Be》。基于长达55小时的此前未曝光录像,包括披头士在录音室中制作的少见画面,拍摄时间为1969年1月2日-31日。1970年5月,《Let It Be》专辑发行,而当时乐队刚分崩离析。录像高潮为披头士那场著名演出——在伦敦萨维尔街苹果唱片公司总部旧址屋顶上的表演。

  这段录像本来是用来做一个特别节目的,现用在纪录片上。此外还有140小时的音频。

  《Let It Be》那段时间经常被看成乐队的动荡时期,而杰克逊说,他很高兴看完这些新得到的视频后,发现事实跟传说并不一样:在那些录像中,虽然也有抓马,但更多的是乐队成员们如何制作出经典音乐,那样的画面“不仅让人神往,而且很有趣,振奋人心,而且与他们的距离让人惊讶地非常亲密贴近。”PJ称很荣幸和开心能得到这样的视频,“制作这部电影会是完全的快乐”。

  他用了已经用在他此前执导的纪录片《他们已不再变老》中的“黑科技”复原技术来处理这些视频。

  该片获得了乐队成员保罗·麦卡特尼、林戈·斯塔尔和去世成员家属的合作,包括约翰·列侬的遗孀小野洋子、乔治·哈里森的遗孀Olivia Harrison,苹果唱片公司也参与制作。

视频信息

General
Unique ID                   : 184676347727764644871070203909525336453 (0x8AEF5EED76844CAD9B9525A814D5F185)
Complete name               : F:\DSfile\The.Beatles.Get.Back.S01.1080p.DSNP.WEBRip.DDP5.1.Atmos.x264-TEPES[rartv]\The.Beatles.Get.Back.S01E01.Part.1.Days.1-7.1080p.DSNP.WEB-DL.DDP5.1.Atmos.H.264-TEPES.mkv
Format                      : Matroska
Format version              : Version 4
File size                   : 8.31 GiB
Duration                    : 2 h 36 min
Overall bit rate mode       : Variable
Overall bit rate            : 7 591 kb/s
Writing application         : mkvmerge v63.0.0 ('Everything') 64-bit
Writing library             : libebml v1.4.2 + libmatroska v1.6.4

Video
ID                          : 1
Format                      : AVC
Format/Info                 : Advanced Video Codec
Format profile              : High@L4
Format settings             : CABAC / 4 Ref Frames
Format settings, CABAC      : Yes
Format settings, Reference  : 4 frames
Codec ID                    : V_MPEG4/ISO/AVC
Duration                    : 2 h 36 min
Bit rate mode               : Variable
Bit rate                    : 6 818 kb/s
Maximum bit rate            : 12.7 Mb/s
Width                       : 1 920 pixels
Height                      : 1 080 pixels
Display aspect ratio        : 16:9
Frame rate mode             : Constant
Frame rate                  : 24.000 FPS
Color space                 : YUV
Chroma subsampling          : 4:2:0
Bit depth                   : 8 bits
Scan type                   : Progressive
Bits/(Pixel*Frame)          : 0.137
Stream size                 : 7.46 GiB (90%)
Default                     : Yes
Forced                      : No
Color range                 : Limited
Color primaries             : BT.709
Transfer characteristics    : BT.709
Matrix coefficients         : BT.709

Audio
ID                          : 2
Format                      : E-AC-3 JOC
Format/Info                 : Enhanced AC-3 with Joint Object Coding
Commercial name             : Dolby Digital Plus with Dolby Atmos
Codec ID                    : A_EAC3
Duration                    : 2 h 36 min
Bit rate mode               : Constant
Bit rate                    : 768 kb/s
Channel(s)                  : 6 channels
Channel layout              : L R C LFE Ls Rs
Sampling rate               : 48.0 kHz
Frame rate                  : 31.250 FPS (1536 SPF)
Compression mode            : Lossy
Stream size                 : 861 MiB (10%)
Language                    : English
Service kind                : Complete Main
Default                     : Yes
Forced                      : No
Complexity index            : 16
Number of dynamic objects   : 15
Bed channel count           : 1 channel
Bed channel configuration   : LFE

Text #1
ID                          : 3
Format                      : UTF-8
Codec ID                    : S_TEXT/UTF8
Codec ID/Info               : UTF-8 Plain Text
Duration                    : 2 h 28 min
Bit rate                    : 54 b/s
Count of elements           : 1656
Stream size                 : 59.6 KiB (0%)
Language                    : English
Default                     : No
Forced                      : No

Text #2
ID                          : 4
Format                      : UTF-8
Codec ID                    : S_TEXT/UTF8
Codec ID/Info               : UTF-8 Plain Text
Duration                    : 2 h 30 min
Bit rate                    : 96 b/s
Count of elements           : 2580
Stream size                 : 106 KiB (0%)
Title                       : SDH
Language                    : English
Default                     : No
Forced                      : No

Text #3
ID                          : 5
Format                      : UTF-8
Codec ID                    : S_TEXT/UTF8
Codec ID/Info               : UTF-8 Plain Text
Duration                    : 2 h 36 min
Bit rate                    : 62 b/s
Count of elements           : 2054
Stream size                 : 71.3 KiB (0%)
Language                    : Danish
Default                     : No
Forced                      : No

Text #4
ID                          : 6
Format                      : UTF-8
Codec ID                    : S_TEXT/UTF8
Codec ID/Info               : UTF-8 Plain Text
Duration                    : 2 h 36 min
Bit rate                    : 62 b/s
Count of elements           : 1845
Stream size                 : 71.5 KiB (0%)
Language                    : German
Default                     : No
Forced                      : No

Text #5
ID                          : 7
Format                      : UTF-8
Codec ID                    : S_TEXT/UTF8
Codec ID/Info               : UTF-8 Plain Text
Duration                    : 2 h 36 min
Bit rate                    : 61 b/s
Count of elements           : 1990
Stream size                 : 70.4 KiB (0%)
Title                       : Latin American
Language                    : Spanish
Default                     : No
Forced                      : No

Text #6
ID                          : 8
Format                      : UTF-8
Codec ID                    : S_TEXT/UTF8
Codec ID/Info               : UTF-8 Plain Text
Duration                    : 2 h 36 min
Bit rate                    : 69 b/s
Count of elements           : 1911
Stream size                 : 79.2 KiB (0%)
Language                    : Spanish
Default                     : No
Forced                      : No

Text #7
ID                          : 9
Format                      : UTF-8
Codec ID                    : S_TEXT/UTF8
Codec ID/Info               : UTF-8 Plain Text
Duration                    : 2 h 36 min
Bit rate                    : 62 b/s
Count of elements           : 1918
Stream size                 : 71.2 KiB (0%)
Language                    : Finnish
Default                     : No
Forced                      : No

Text #8
ID                          : 10
Format                      : UTF-8
Codec ID                    : S_TEXT/UTF8
Codec ID/Info               : UTF-8 Plain Text
Duration                    : 2 h 36 min
Bit rate                    : 59 b/s
Count of elements           : 1915
Stream size                 : 68.3 KiB (0%)
Language                    : French
Default                     : No
Forced                      : No

Text #9
ID                          : 11
Format                      : UTF-8
Codec ID                    : S_TEXT/UTF8
Codec ID/Info               : UTF-8 Plain Text
Duration                    : 2 h 36 min
Bit rate                    : 65 b/s
Count of elements           : 2038
Stream size                 : 74.5 KiB (0%)
Language                    : Italian
Default                     : No
Forced                      : No

Text #10
ID                          : 12
Format                      : UTF-8
Codec ID                    : S_TEXT/UTF8
Codec ID/Info               : UTF-8 Plain Text
Duration                    : 2 h 36 min
Bit rate                    : 49 b/s
Count of elements           : 1482
Stream size                 : 57.1 KiB (0%)
Language                    : Japanese
Default                     : No
Forced                      : No

Text #11
ID                          : 13
Format                      : UTF-8
Codec ID                    : S_TEXT/UTF8
Codec ID/Info               : UTF-8 Plain Text
Duration                    : 2 h 36 min
Bit rate                    : 77 b/s
Count of elements           : 2199
Stream size                 : 88.6 KiB (0%)
Language                    : Korean
Default                     : No
Forced                      : No

Text #12
ID                          : 14
Format                      : UTF-8
Codec ID                    : S_TEXT/UTF8
Codec ID/Info               : UTF-8 Plain Text
Duration                    : 2 h 29 min
Bit rate                    : 64 b/s
Count of elements           : 1630
Stream size                 : 70.3 KiB (0%)
Language                    : Dutch
Default                     : No
Forced                      : No

Text #13
ID                          : 15
Format                      : UTF-8
Codec ID                    : S_TEXT/UTF8
Codec ID/Info               : UTF-8 Plain Text
Duration                    : 2 h 36 min
Bit rate                    : 62 b/s
Count of elements           : 1634
Stream size                 : 71.3 KiB (0%)
Language                    : Norwegian
Default                     : No
Forced                      : No

Text #14
ID                          : 16
Format                      : UTF-8
Codec ID                    : S_TEXT/UTF8
Codec ID/Info               : UTF-8 Plain Text
Duration                    : 2 h 36 min
Bit rate                    : 55 b/s
Count of elements           : 2030
Stream size                 : 63.3 KiB (0%)
Language                    : Polish
Default                     : No
Forced                      : No

Text #15
ID                          : 17
Format                      : UTF-8
Codec ID                    : S_TEXT/UTF8
Codec ID/Info               : UTF-8 Plain Text
Duration                    : 2 h 36 min
Bit rate                    : 59 b/s
Count of elements           : 1946
Stream size                 : 68.2 KiB (0%)
Title                       : Brazilian
Language                    : Portuguese
Default                     : No
Forced                      : No

Text #16
ID                          : 18
Format                      : UTF-8
Codec ID                    : S_TEXT/UTF8
Codec ID/Info               : UTF-8 Plain Text
Duration                    : 2 h 36 min
Bit rate                    : 65 b/s
Count of elements           : 2025
Stream size                 : 74.8 KiB (0%)
Language                    : Portuguese
Default                     : No
Forced                      : No

Text #17
ID                          : 19
Format                      : UTF-8
Codec ID                    : S_TEXT/UTF8
Codec ID/Info               : UTF-8 Plain Text
Duration                    : 2 h 36 min
Bit rate                    : 63 b/s
Count of elements           : 2111
Stream size                 : 72.8 KiB (0%)
Language                    : Swedish
Default                     : No
Forced                      : No

Text #18
ID                          : 20
Format                      : UTF-8
Codec ID                    : S_TEXT/UTF8
Codec ID/Info               : UTF-8 Plain Text
Duration                    : 2 h 36 min
Bit rate                    : 64 b/s
Count of elements           : 2129
Stream size                 : 74.1 KiB (0%)
Language                    : Chinese
Default                     : No
Forced                      : No

Text #19
ID                          : 21
Format                      : UTF-8
Codec ID                    : S_TEXT/UTF8
Codec ID/Info               : UTF-8 Plain Text
Duration                    : 2 h 36 min
Bit rate                    : 65 b/s
Count of elements           : 2105
Stream size                 : 74.7 KiB (0%)
Title                       : Simplified
Language                    : Chinese
Default                     : No
Forced                      : No

Text #20
ID                          : 22
Format                      : UTF-8
Codec ID                    : S_TEXT/UTF8
Codec ID/Info               : UTF-8 Plain Text
Duration                    : 2 h 36 min
Bit rate                    : 61 b/s
Count of elements           : 2178
Stream size                 : 70.0 KiB (0%)
Title                       : Traditional
Language                    : Chinese
Default                     : No
Forced                      : No

Menu
02:36:42.833                : en:Credits

视频截图

下载地址

The.Beatles.Get.Back.S01.720p.DSNP.WEBRip.DDP5.1.Atmos.x264-TEPES 12.94GB:magnet:?xt=urn:btih:1666D261819B262C4DA7BF4C03118C4F40E43054

The.Beatles.Get.Back.S01.1080p.DSNP.WEBRip.DDP5.1.Atmos.x264-TEPES 24.29GB:magnet:?xt=urn:btih:6CB16877D337EC15407607FCF2CC55A9F186E83C

The.Beatles.Get.Back.S01.2160p.WEB-DL.DDP5.1.Atmos.x265-TEPES 66.77GB:magnet:?xt=urn:btih:16FB30D6B12B5B1C20A21FB6B79779614DD8141F

霸王龙压制组

百度网盘 全3集.官方中字
https://pan.baidu.com/s/1510nTe2gYVFlOr4_io8hvw#trex 提取码:trex
阿里云网盘 全3集.官方中字
https://www.aliyundrive.com/s/sUFse8MUTD8

远鉴字幕组

MP4 1080P中字

迅雷云盘 https://pan.xunlei.com/s/VMpVs6iCUBVcHlJZ04FTd6WaA1 提取码:jtwz

阿里云盘 https://www.aliyundrive.com/s/aEP7VYrxB8a

Visits: 30

留下评论

LightDark
LightDark