[2021美国悬疑惊悚]《Paranormal Activity: Next of Kin:鬼影实录6》[中英字幕][HD1080P]

%title插图%num

◎译  名 鬼影实录6
◎片  名 Paranormal Activity: Next of Kin
◎年  代 2021
◎产  地 美国
◎类  别 悬疑 / 惊悚 / 恐怖
◎语  言 英语
◎上映日期 2021-10-29(美国)
◎IMDb评分  5.2/10 from 3717 users
◎IMDb链接  https://www.imdb.com/title/tt10515988/
◎豆瓣评分 5.2/10 from 442 users
◎豆瓣链接 https://movie.douban.com/subject/34884170/
◎导  演 威廉·尤班克 William Eubank
◎编  剧 克里斯托弗·兰登 Christopher Landon
◎主  演 罗兰·巴克三世 Roland Buck III
      吉尔·安德烈 Jill Andre
      艾米丽·巴德 Emily Bader
      汤姆·诺维茨基 Tom Nowicki
      古纳尔·怀特 Gunner Wright
      克里·锡安 Kyli Zion

◎标  签 恐怖 | 伪纪录片 | 惊悚 | 灵异 | 美国 | 2021 | 美国电影 | 系列电影

◎简  介 

Margot 是一名年轻女子,在婴儿时期就被母亲遗弃,她与纪录片摄制组一起前往一个僻静的阿米什社区,寻找有关她母亲和大家庭的答案。

视频信息

General
Complete name                  : E:\DSfile\鬼影实录6.Paranormal.Activity.Next.of.Kin.2021.HD1080P.X264.AAC.English.CHS-ENG.Mp4er\Paranormal.Activity.Next.of.Kin.2021.HD1080P.X264.AAC.English.CHS-ENG.Mp4er.mp4
Format                         : MPEG-4
Format profile                 : Base Media
Codec ID                       : isom (isom/iso2/avc1/mp41)
File size                      : 4.50 GiB
Duration                       : 1 h 38 min
Overall bit rate               : 6 539 kb/s
Writing application            : Lavf58.29.100

Video
ID                             : 1
Format                         : AVC
Format/Info                    : Advanced Video Codec
Format profile                 : High@L5
Format settings                : CABAC / 11 Ref Frames
Format settings, CABAC         : Yes
Format settings, Reference fra : 11 frames
Codec ID                       : avc1
Codec ID/Info                  : Advanced Video Coding
Duration                       : 1 h 38 min
Bit rate                       : 6 404 kb/s
Width                          : 1 920 pixels
Height                         : 1 080 pixels
Display aspect ratio           : 16:9
Frame rate mode                : Variable
Frame rate                     : 24.000 FPS
Minimum frame rate             : 23.981 FPS
Maximum frame rate             : 24.010 FPS
Color space                    : YUV
Chroma subsampling             : 4:2:0
Bit depth                      : 8 bits
Scan type                      : Progressive
Bits/(Pixel*Frame)             : 0.129
Stream size                    : 4.40 GiB (98%)
Writing library                : x264 core 157 r2969 d4099dd
Encoding settings              : cabac=1 / ref=11 / deblock=1:-1:-1 / analyse=0x3:0x133 / me=umh / subme=9 / psy=1 / psy_rd=0.80:0.05 / mixed_ref=1 / me_range=30 / chroma_me=1 / trellis=2 / 8x8dct=1 / cqm=0 / deadzone=21,11 / fast_pskip=0 / chroma_qp_offset=-3 / threads=34 / lookahead_threads=8 / sliced_threads=0 / nr=0 / decimate=1 / interlaced=0 / bluray_compat=0 / constrained_intra=0 / bframes=11 / b_pyramid=2 / b_adapt=2 / b_bias=0 / direct=3 / weightb=1 / open_gop=0 / weightp=2 / keyint=590 / keyint_min=120 / scenecut=60 / intra_refresh=0 / rc_lookahead=240 / rc=crf / mbtree=1 / crf=18.0 / qcomp=0.50 / qpmin=0 / qpmax=69 / qpstep=4 / ip_ratio=1.40 / aq=3:0.90
Language                       : English
Codec configuration box        : avcC

Audio
ID                             : 2
Format                         : AAC LC
Format/Info                    : Advanced Audio Codec Low Complexity
Codec ID                       : mp4a-40-2
Duration                       : 1 h 38 min
Bit rate mode                  : Constant
Bit rate                       : 128 kb/s
Channel(s)                     : 2 channels
Channel layout                 : L R
Sampling rate                  : 48.0 kHz
Frame rate                     : 46.875 FPS (1024 SPF)
Compression mode               : Lossy
Stream size                    : 89.8 MiB (2%)
Language                       : English
Default                        : Yes
Alternate group                : 1

视频截图

下载地址

鬼影实录6.Paranormal.Activity.Next.of.Kin.2021.HD1080P.X264.AAC.English.CHS-ENG.Mp4er 4.50GB:magnet:?xt=urn:btih:832ED3540C9FF085EF77F555653AEFA874D751C6

[鬼影实录5:鬼次元].Paranormal.Activity.The.Ghost.Dimension.2015.Extended.BluRay.720p.x264.AC3-CMCT 3GB:magnet:?xt=urn:btih:34F0E728B739BC9FE3B3B56A9B07A3567F083EA7

鬼影实录5:鬼次元.Paranormal.Activity.The.Ghost.Dimension.2015.HD1080P.X264.AAC.English.CHS-ENG.Mp4Ba 3.55GB:magnet:?xt=urn:btih:939EA545A8C460A62E3C855A8C124F4DBB8044FF

鬼影实录:诅咒.Paranormal.Activity.The.Marked.Ones.2014.BD1080P.X264.AAC.English.CHS.Mp4Ba 3.35GB:magnet:?xt=urn:btih:2689934A1ACEEF52E131134BDB7F1B6C9A7D2D2B

灵动:鬼影实录4(未分级版) Paranormal Activity 4 1080P 中字 2.10GB:magnet:?xt=urn:btih:BCBCCD27DF97056AA9AA0B43CA15D905FFCDBFE4

灵动:鬼影实录3(未分级版) Paranormal Activity 3 1080P 中字 2.03GB:magnet:?xt=urn:btih:81F837E2354F50F26C29B6E67AAFB255A6F471A1

灵动:鬼影实录2.Paranormal.Activity.2.BluRay.720p.AC3.x264-CnSCG 2.20GB:magnet:?xt=urn:btih:4FCF9576A0F69950A275486C3B51097EE49CCDA8

灵动:鬼影实录2 Paranormal Activity 2 1080P 中字 2.15GB:magnet:?xt=urn:btih:F857BAF35F416B1806DD8DA26240668CA88FD3F2

灵动:鬼影实录【双结局版】.2009.中英字幕£圣城空石 2.14GB:magnet:?xt=urn:btih:D17A80198CFDB1D65796DF72FA3606E3F4871C00&dn=%E7%81%B5%E5%8A%A8%EF%BC%9A%E9%AC%BC%E5%BD%B1%E5%AE%9E%E5%BD%95%E3%80%90%E5%8F%8C%E7%BB%93%E5%B1%80%E7%89%88%E3%80%91.2009.%E4%B8%AD%E8%8B%B1%E5%AD%97%E5%B9%95%EF%BF%A1%E5%9C%A3%E5%9F%8E%E7%A9%BA%E7%9F%B3

灵动:鬼影实录 Paranormal Activity 1080P 中字 1.90GB:magnet:?xt=urn:btih:93D26266BD4970C14FB4E00460BDF4C3E80A6EAC

留下评论

Secured By miniOrange