[2021美国喜剧动画]《Luca:夏日友晴天》[国粤台英四语/简繁字幕][BD-MKV-1080p]

%title插图%num

◎译  名 夏日友晴天 / 盛夏友晴天(港) / 路卡的夏天(台) / 卢卡
◎片  名 Luca
◎年  代 2021
◎产  地 美国
◎类  别 喜剧 / 动画 / 奇幻 / 冒险
◎语  言 英语 / 意大利语
◎上映日期 2021-08-20(中国大陆) / 2021-06-18(美国网络)
◎IMDb链接 https://www.imdb.com/title/tt12801262/
◎豆瓣评分 7.4/10 (75312人评价)
◎豆瓣链接 https://movie.douban.com/subject/35161768/
◎片  长 95分钟
◎导  演 埃里康·卡萨罗萨 Enrico Casarosa (id:1320935)
◎编  剧 埃里康·卡萨罗萨 Enrico Casarosa (id:1320935)
      杰西·安德鲁斯 Jesse Andrews (id:1348082)
      西蒙·斯蒂芬森 Simon Stephenson (id:1458701)
      麦克·琼斯 Mike Jones (id:1440274)
      朱莉·林恩 Julie Lynn (id:1290527)
      兰达尔·格林 Randall Green (id:1416865)
◎演  员 雅各布·特伦布莱 Jacob Tremblay (id:1332866)
      杰克·迪伦·格雷泽 Jack Dylan Grazer (id:1380979)
      艾玛·伯曼 Emma Berman (id:1458960)
      萨维里奥·雷蒙多 Saverio Raimondo (id:1458961)
      玛娅·鲁道夫 Maya Rudolph (id:1025183)
      萨莎·拜伦·科恩 Sacha Baron Cohen (id:1027161)
      马可·巴里切利 Marco Barricelli (id:1458962)
      吉姆·加菲根 Jim Gaffigan (id:1009467)
      彼得·孙 Peter Sohn (id:1298008)
      洛伦佐·克里斯奇 Lorenzo Crisci (id:1458963)
      玛丽娜·马西罗尼 Marina Massironi (id:1127)
      吉诺·拉·莫妮卡 Gino La Monica (id:1106936)
      桑迪·马丁 Sandy Martin (id:1389480)
      嘉科莫·吉安尼欧缇 Giacomo Gianniotti (id:1339672)
      艾莉莎·加布瑞利 Elisa Gabrielli (id:1458964)
      咪咪·梅纳德 Mimi Maynard (id:1445999)
      埃里康·卡萨罗萨 Enrico Casarosa (id:1320935)
      吉姆·皮里 Jim Pirri (id:1314311)
      Gino D’Acampo Gino D’Acampo (id:1212394)
      德雷克·贝尔 Drake Bell (id:1009318)
      约翰·拉岑贝格 John Ratzenberger (id:1002680)
      乔纳森·尼科尔斯 Jonathan Nichols (id:1459012)
      丹·罗莫 Dan Romer (id:1325664)

◎标  签 皮克斯 / 动画 / 友情 / 成长 / 意大利 / 夏日 / 友谊 / 儿童

◎简  介
  故事发生在意大利里维埃拉地区的一个美丽海滨小镇,讲述了男孩卢卡(雅各布·特伦布莱 配音)在令人难忘的夏季,所经历的成长故事,充满了意式冰淇淋、意大利面和无尽的摩托车骑行。卢卡与好友阿贝托(杰克·迪伦·格雷泽 配音)和新朋友茱莉娅(艾玛·伯曼 配音)共赴冒险,但所有的乐趣都受到一个深藏不露的秘密威胁——他们两人是来自水面下另一个世界的海怪。

视频信息

General
Unique ID                      : 173600831465224591147026933914504759587 (0x829A4DD0E88F65F0A8852C6AC0438923)
Complete name                  : E:\DSfile\【更多高清电影访问 www.BBQDDQ.com】夏日友晴天[简繁字幕].Luca.2021.RERiP.1080p.BluRay.x264.DTS-10012@BBQDDQ.COM 10.93GB\Luca.2021.RERiP.1080p.BluRay.x264.DTS-10012@BBQDDQ.COM.mkv
Format                         : Matroska
Format version                 : Version 1
File size                      : 10.9 GiB
Duration                       : 1 h 35 min
Overall bit rate               : 16.4 Mb/s
Encoded date                   : UTC 2021-11-06 05:05:46
Writing application            : mkvmerge v2.2.0 ('Turn It On Again') built on Mar  4 2008 13:20:25
Writing library                : libebml v0.7.7 + libmatroska v0.8.1
Attachments                    : MSYH.TTF / MSYHBD.TTF / tahoma.ttf / MSYH.TTF / MSYH_chscht.ttf / MSYHBD.TTF / tahoma.ttf

Video
ID                             : 1
Format                         : AVC
Format/Info                    : Advanced Video Codec
Format profile                 : High@L4.1
Format settings                : CABAC / 4 Ref Frames
Format settings, CABAC         : Yes
Format settings, Reference fra : 4 frames
Codec ID                       : V_MPEG4/ISO/AVC
Duration                       : 1 h 35 min
Bit rate                       : 12.0 Mb/s
Width                          : 1 920 pixels
Height                         : 1 036 pixels
Display aspect ratio           : 1.85:1
Frame rate mode                : Constant
Frame rate                     : 23.976 (24000/1001) FPS
Color space                    : YUV
Chroma subsampling             : 4:2:0
Bit depth                      : 8 bits
Scan type                      : Progressive
Bits/(Pixel*Frame)             : 0.252
Stream size                    : 7.85 GiB (72%)
Writing library                : x264 core 133 r2334 a3ac64b
Encoding settings              : cabac=1 / ref=4 / deblock=1:-1:-1 / analyse=0x3:0x113 / me=umh / subme=11 / psy=1 / psy_rd=1.00:0.00 / mixed_ref=1 / me_range=64 / chroma_me=1 / trellis=2 / 8x8dct=1 / cqm=0 / deadzone=21,11 / fast_pskip=0 / chroma_qp_offset=-4 / threads=36 / lookahead_threads=6 / sliced_threads=0 / nr=0 / decimate=0 / interlaced=0 / bluray_compat=0 / constrained_intra=0 / bframes=8 / b_pyramid=2 / b_adapt=2 / b_bias=0 / direct=3 / weightb=1 / open_gop=0 / weightp=2 / keyint=250 / keyint_min=23 / scenecut=40 / intra_refresh=0 / rc=2pass / mbtree=0 / bitrate=12000 / ratetol=1.0 / qcomp=0.60 / qpmin=0 / qpmax=69 / qpstep=4 / cplxblur=20.0 / qblur=0.5 / ip_ratio=1.40 / pb_ratio=1.30 / aq=1:0.80
Language                       : English
Default                        : Yes
Forced                         : No

Audio #1
ID                             : 2
Format                         : DTS
Format/Info                    : Digital Theater Systems
Codec ID                       : A_DTS
Duration                       : 1 h 35 min
Bit rate mode                  : Constant
Bit rate                       : 1 509 kb/s
Channel(s)                     : 6 channels
Channel layout                 : C L R Ls Rs LFE
Sampling rate                  : 48.0 kHz
Frame rate                     : 93.750 FPS (512 SPF)
Bit depth                      : 24 bits
Compression mode               : Lossy
Stream size                    : 1.00 GiB (9%)
Title                          : 英语
Language                       : English
Default                        : No
Forced                         : No

Audio #2
ID                             : 3
Format                         : DTS
Format/Info                    : Digital Theater Systems
Codec ID                       : A_DTS
Duration                       : 1 h 35 min
Bit rate mode                  : Constant
Bit rate                       : 1 509 kb/s
Channel(s)                     : 6 channels
Channel layout                 : C L R Ls Rs LFE
Sampling rate                  : 48.0 kHz
Frame rate                     : 93.750 FPS (512 SPF)
Bit depth                      : 24 bits
Compression mode               : Lossy
Stream size                    : 1.00 GiB (9%)
Title                          : 公映国语
Language                       : Chinese
Default                        : Yes
Forced                         : No

Audio #3
ID                             : 4
Format                         : AC-3
Format/Info                    : Audio Coding 3
Commercial name                : Dolby Digital
Codec ID                       : A_AC3
Duration                       : 1 h 35 min
Bit rate mode                  : Constant
Bit rate                       : 640 kb/s
Channel(s)                     : 6 channels
Channel layout                 : L R C LFE Ls Rs
Sampling rate                  : 48.0 kHz
Frame rate                     : 31.250 FPS (1536 SPF)
Compression mode               : Lossy
Stream size                    : 436 MiB (4%)
Title                          : 台配国语
Language                       : Chinese
Service kind                   : Complete Main
Default                        : No
Forced                         : No

Audio #4
ID                             : 5
Format                         : AC-3
Format/Info                    : Audio Coding 3
Commercial name                : Dolby Digital
Codec ID                       : A_AC3
Duration                       : 1 h 35 min
Bit rate mode                  : Constant
Bit rate                       : 640 kb/s
Channel(s)                     : 6 channels
Channel layout                 : L R C LFE Ls Rs
Sampling rate                  : 48.0 kHz
Frame rate                     : 31.250 FPS (1536 SPF)
Compression mode               : Lossy
Stream size                    : 436 MiB (4%)
Title                          : 粤语
Language                       : Chinese
Service kind                   : Complete Main
Default                        : No
Forced                         : No

Text #1
ID                             : 6
Format                         : ASS
Codec ID                       : S_TEXT/ASS
Codec ID/Info                  : Advanced Sub Station Alpha
Compression mode               : Lossless
Title                          : cht
Language                       : Chinese
Default                        : No
Forced                         : No

Text #2
ID                             : 7
Format                         : ASS
Codec ID                       : S_TEXT/ASS
Codec ID/Info                  : Advanced Sub Station Alpha
Compression mode               : Lossless
Title                          : chs
Language                       : Chinese
Default                        : Yes
Forced                         : No

视频截图

下载地址

夏日友晴天[简繁字幕].Luca.2021.RERiP.1080p.BluRay.x264.DTS-10012@BBQDDQ.COM 10.93GB:magnet:?xt=urn:btih:9B06581D99B7B9CE54E83AED75ADC649C36EE00A

附皮克斯电影长片:

玩具总动员三部曲 Toy.Story.1-3.1995-2010.1080p.BluRay.x264.DTS.AC3.3Audio-HDWinG 25.34GB:magnet:?xt=urn:btih:4522800F484CA378EC107FC985DDF73E2578D3DF

虫虫特攻队.1998.国粤英SUP字幕£CMCT南山石 2.61GB:magnet:?xt=urn:btih:8C572C3E56122D5A31F7DF5867F03AE81A8E461B

怪兽电力公司[国/粤/英]Monsters.Inc.2001.1080p.BluRay.x264.TureHD.7.1-HDWinG 11.7G:magnet:?xt=urn:btih:9F047002E219EC5C1B2B4FA5A711A3CF84322D25

[海底总动员1-2].Finding Nemo.2003-2016.BD.1080P.x265.10bit.DD5.1.国英台粤.内封简繁-FFansBD@bacens888 8.24GB:magnet:?xt=urn:btih:37D28EAA755B1B85DE87D3EB541FBD2AD1AC28D8

[超人总动员].The Incredibles.2004.BD.1080P.x265.10bit.DD5.1.英国台粤.4Audio.内封特效中英-FFansBD[bt.f-fans.club] 6.14GB:magnet:?xt=urn:btih:C6BFFF29272C27B2E811BD937A67F67311A70643

[赛车总动员1-3].Cars.2006-2017.BD.1080P.x265.10bit.DD5.1.国台粤英.内封简繁-FFansBD@bacens888 12.86GB:magnet:?xt=urn:btih:108E408B69B190B42DA48BB4A655E28CACBC1BC5&dn=%5B%E8%B5%9B%E8%BD%A6%E6%80%BB%E5%8A%A8%E5%91%981-3%5D.Planes.2006-2017.BD.1080P.x265.10bit.DD5.1.%E5%9B%BD%E5%8F%B0%E7%B2%A4%E8%8B%B1.%E5%86%85%E5%B0%81%E7%AE%80%E7%B9%81-FFansBD%40bacens888

美食总动员.Ratatouille.2007.US.BluRay.1920x800p.x264.DTS.3Audios-KOOK.[国粤英三语.中英双字] 9.57GB:magnet:?xt=urn:btih:B20B644E542975E5537B3A3F543E1AFF970374A7

机器人总动员.WALL·E.2008.US.BluRay.1920x800p.x264.DTS.3Audios-KOOK.[国粤英三语.中英双字] 8.75GB:magnet:?xt=urn:btih:CB5D396036B8BA435CBE6C9FA1787420716D533D

飞屋环游记.Up.2009.US.BluRay.1920x1080p.x264.DTS.4Audios-KOOK.[国台粤英四语.中英双字] 6.85GB:magnet:?xt=urn:btih:4E7B1F8AF8451195456344903AA5E2FC053F7327

勇敢传说.Brave.2012.US.BluRay.1920x802p.x264.TrueHD.7.1.5Audios-KOOK.[国台粤英导5轨.中英双字] 10.97GB:magnet:?xt=urn:btih:0F0FAC6ACA85E8DA2C80C28F2277EB1994B8F9FF

[怪兽大学(国粤英)]M.U.2013.BluRay.1080p.x264.3Audio.AC3-CnSCG 8.79GB:magnet:?xt=urn:btih:B7051340E6DDB8289C50604BCA35535EE971482B

头脑特工队[国粤语音轨+中文字幕].Inside.Out.2015.1080p.BluRay.x264.DTS.3Audio-BBQDDQ 8.16GB:magnet:?xt=urn:btih:D531A6C5D41C00151400D6123E54174D8F81F568

[恐龙当家].The.Good.Dinosau.2015.BluRay.1080p.x264.DTS.3Audios-CMCT 9.04GB:magnet:?xt=urn:btih:88127DB3A568850018B06A72D791B5CA9DB1BF5E

寻梦环游记.Coco.2017.US.BluRay.1920x804p.x264.DTS-HD.MA.7.1.4Audios-KOOK.[国粤台英四语.中英双字] 11.69GB:magnet:?xt=urn:btih:DC20F3424F5A02927D1494CA2C34FA64F650D298&dn=%E5%AF%BB%E6%A2%A6%E7%8E%AF%E6%B8%B8%E8%AE%B0.Coco.2017.US.BluRay.1920x804p.x264.DTS-HD.MA.7.1.4Audios-KOOK.%5B%E5%9B%BD%E7%B2%A4%E5%8F%B0%E8%8B%B1%E5%9B%9B%E8%AF%AD.%E4%B8%AD%E8%8B%B1%E5%8F%8C%E5%AD%97%5D

[超人总动员2.修正版].Incredibles.2.2018.BD.1080P.x265.10bit.AC3&AAC.英国台粤评.内封特效中英-FFansBD 7.17GB:magnet:?xt=urn:btih:BAC643AC50BD2F0703B811114E16EEF1FFE3D2B0

[玩具总动员4].Toy.Story.4.2019.BluRay.1080p.x265.10bit.DTS.3Audio-FFans@HDMove.mkv 5.29GB:magnet:?xt=urn:btih:F080981FFC0770836CFBF0852FE6D736531A88AF

二分之一魔法 国粤英3语中字.Onward.2020.Repack.BluRay.1080p.3Audio..x264.mkv 5.30GB:magnet:?xt=urn:btih:8622100322DBFDCFDDE506AA6C1E01EE8F4FB9F6&dn=%E4%BA%8C%E5%88%86%E4%B9%8B%E4%B8%80%E9%AD%94%E6%B3%95%20%E5%9B%BD%E7%B2%A4%E8%8B%B13%E8%AF%AD%E4%B8%AD%E5%AD%97.Onward.2020.Repack.BluRay.1080p.3Audio..x264.mkv

心灵奇旅Soul.2020.UHD.BluRay.2160p.10bit.HDR.3Audio.TrueHD(Atmos).7.1.DTS-HD.MA.7.1.x265-beAst 16.22GB:magnet:?xt=urn:btih:c23f81261c470d93ca38026b5bcdda9ca5eae146&dn=Soul.2020.UHD.BluRay.2160p.10bit.HDR.3Audio.TrueHD(Atmos).7.1.DTS-HD.MA.7.1.x265-beAst

留下评论

Secured By miniOrange