[2021欧美奇幻][A Boy Called Christmas:圣诞男孩][官译简繁英多字幕][WEB-MKV-1080P]

%title插图%num

◎译  名 圣诞男孩
◎片  名 A Boy Called Christmas
◎年  代 2021
◎产  地 英国
◎类  别 剧情/家庭/奇幻/冒险
◎语  言 英语
◎上映日期 2021-11-24(美国网络)
◎IMDB链接 https://www.imdb.com/title/tt10187208/
◎豆瓣评分 /10 from 0 users
◎豆瓣链接 https://douban.com/subject/33411411/
◎导  演 吉尔·克兰 Gil Kenan
◎编  剧 欧·帕克 Ol Parker / 吉尔·克兰 Gil Kenan
◎主  演 玛吉·史密斯 Maggie Smith
      亨利·劳福 Henry Lawfull
      莎莉·霍金斯 Sally Hawkins
      克里斯汀·韦格 Kristen Wiig
      米希尔·赫伊斯曼 Michiel Huisman
      托比·琼斯 Toby Jones
      斯戴芬·莫昌特 Stephen Merchant
      吉姆·布劳德本特 Jim Broadbent
      佐伊·玛格丽特·科莱蒂 Zoe Margaret Colletti
      鲁内·泰特 Rune Temte
      印迪卡·沃森 Indica Watson
      彼得·霍斯金 Peter Hosking
      肯德里克·昂 Kendrick Ong
      崔西·奥斯蒙德 Trish Osmond
◎标  签 英国 | 奇幻 | 2021 | 英国电影 | 玛吉·史密斯 | 改编 | 莎莉·霍金斯 | 冒险
◎简  介

  吉姆·布劳德本特、克里斯汀·韦格、莎莉·霍金斯、玛吉·史密斯加盟影片[圣诞男孩](A Boy Called Christmas,暂译),其他卡司包括佐伊·玛格丽特·科莱蒂([狂野生活])、托比·琼斯([金发缪斯])、米契尔·哈思曼(《鬼入侵》)等。吉尔·克兰([怪兽屋])执导,吉尔与欧·帕克([涉外大饭店])共同操刀剧本。

  故事改编自马特·海格同名畅销书,讲述11岁的尼古拉斯和父亲住在一起,尼古拉斯最好的伙伴是一只小老鼠。有一天,父亲接到一项神秘的任务,不得不离家远行。姑妈来到家里照顾尼古拉斯。姑妈并不喜欢他,而且把尼古拉斯妈妈留下的唯一的玩具毁掉了。尼古拉斯和小老鼠离家出走,去寻找父亲。他在路上认识了一头驯鹿,彼此成为了朋友。他骑着驯鹿,开始了寻找“妖精堡”的奇幻之旅。

  影片目前已开拍。Studiocanal负责影片澳大利亚、中国、法国、新西兰、英国发行。Netflix负责其他国家和地区发行。

视频信息

General
Unique ID                      : 121095415757178958178575059931604468178 (0x5B1A20F4AD5AD9A8E654B0AF3C2041D2)
Complete name                  : E:\追光寻影(zgxybbs.fdns.uk)圣诞男孩.官译简繁英多字幕.A.Boy.Called.Christmas.2021.1080p.Web.H264-纯净版.mkv
Format                         : Matroska
Format version                 : Version 4
File size                      : 3.40 GiB
Duration                       : 1 h 46 min
Overall bit rate mode          : Variable
Overall bit rate               : 4 562 kb/s
Encoded date                   : UTC 2021-11-24 11:21:12
Writing application            : mkvmerge v39.0.0 ('In The Waiting Line') 64-bit
Writing library                : libebml v1.3.9 + libmatroska v1.5.2

Video
ID                             : 1
Format                         : AVC
Format/Info                    : Advanced Video Codec
Format profile                 : Main@L4
Format settings                : CABAC / 3 Ref Frames
Format settings, CABAC         : Yes
Format settings, Reference fra : 3 frames
Codec ID                       : V_MPEG4/ISO/AVC
Duration                       : 1 h 46 min
Bit rate mode                  : Variable
Bit rate                       : 3 789 kb/s
Nominal bit rate               : 4 870 kb/s
Maximum bit rate               : 7 305 kb/s
Width                          : 1 920 pixels
Height                         : 1 080 pixels
Display aspect ratio           : 16:9
Frame rate mode                : Constant
Frame rate                     : 24.000 FPS
Color space                    : YUV
Chroma subsampling             : 4:2:0
Bit depth                      : 8 bits
Scan type                      : Progressive
Bits/(Pixel*Frame)             : 0.076
Stream size                    : 2.83 GiB (83%)
Writing library                : x264 core 148 r2724 dbe0335
Encoding settings              : cabac=1 / ref=3 / deblock=1:0:0 / analyse=0x1:0x111 / me=umh / subme=10 / psy=1 / psy_rd=1.00:0.00 / mixed_ref=1 / me_range=24 / chroma_me=1 / trellis=2 / 8x8dct=0 / cqm=0 / deadzone=21,11 / fast_pskip=1 / chroma_qp_offset=-2 / threads=6 / lookahead_threads=1 / sliced_threads=0 / nr=0 / decimate=1 / interlaced=0 / bluray_compat=0 / stitchable=1 / constrained_intra=0 / bframes=2 / b_pyramid=0 / b_adapt=2 / b_bias=0 / direct=3 / weightb=1 / open_gop=0 / weightp=2 / keyint=250 / keyint_min=24 / scenecut=0 / intra_refresh=0 / rc_lookahead=48 / rc=2pass / mbtree=1 / bitrate=4870 / ratetol=1.0 / qcomp=0.50 / qpmin=6 / qpmax=51 / qpstep=4 / cplxblur=20.0 / qblur=0.5 / vbv_maxrate=7305 / vbv_bufsize=9740 / nal_hrd=vbr / filler=0 / ip_ratio=1.40 / aq=1:1.00
Default                        : Yes
Forced                         : No

Audio
ID                             : 4
Format                         : E-AC-3 JOC
Format/Info                    : Enhanced AC-3 with Joint Object Coding
Commercial name                : Dolby Digital Plus with Dolby Atmos
Codec ID                       : A_EAC3
Duration                       : 1 h 46 min
Bit rate mode                  : Constant
Bit rate                       : 768 kb/s
Channel(s)                     : 6 channels
Channel layout                 : L R C LFE Ls Rs
Sampling rate                  : 48.0 kHz
Frame rate                     : 31.250 FPS (1536 SPF)
Compression mode               : Lossy
Stream size                    : 586 MiB (17%)
Language                       : English
Service kind                   : Complete Main
Default                        : Yes
Forced                         : No
Complexity index               : 16
Number of dynamic objects      : 15
Bed channel count              : 1 channel
Bed channel configuration      : LFE

Text #1
ID                             : 2
Format                         : UTF-8
Codec ID                       : S_TEXT/UTF8
Codec ID/Info                  : UTF-8 Plain Text
Duration                       : 1 h 42 min
Bit rate                       : 53 b/s
Count of elements              : 1224
Stream size                    : 40.1 KiB (0%)
Title                          : Chinese Simplified
Language                       : Chinese
Default                        : Yes
Forced                         : No

Text #2
ID                             : 3
Format                         : UTF-8
Codec ID                       : S_TEXT/UTF8
Codec ID/Info                  : UTF-8 Plain Text
Duration                       : 1 h 42 min
Bit rate                       : 55 b/s
Count of elements              : 1251
Stream size                    : 41.6 KiB (0%)
Title                          : Chinese Traditional
Language                       : Chinese
Default                        : No
Forced                         : No

Text #3
ID                             : 5
Format                         : UTF-8
Codec ID                       : S_TEXT/UTF8
Codec ID/Info                  : UTF-8 Plain Text
Duration                       : 1 h 41 min
Bit rate                       : 66 b/s
Count of elements              : 1638
Stream size                    : 49.5 KiB (0%)
Title                          : English [SDH]
Language                       : English
Default                        : No
Forced                         : No

Text #4
ID                             : 6
Format                         : UTF-8
Codec ID                       : S_TEXT/UTF8
Codec ID/Info                  : UTF-8 Plain Text
Duration                       : 1 h 42 min
Bit rate                       : 88 b/s
Count of elements              : 1239
Stream size                    : 66.6 KiB (0%)
Title                          : Arabic
Language                       : Arabic
Default                        : No
Forced                         : No

Text #5
ID                             : 7
Format                         : UTF-8
Codec ID                       : S_TEXT/UTF8
Codec ID/Info                  : UTF-8 Plain Text
Duration                       : 1 h 42 min
Bit rate                       : 43 b/s
Count of elements              : 1225
Stream size                    : 32.8 KiB (0%)
Title                          : Croatian
Language                       : Croatian
Default                        : No
Forced                         : No

Text #6
ID                             : 8
Format                         : UTF-8
Codec ID                       : S_TEXT/UTF8
Codec ID/Info                  : UTF-8 Plain Text
Duration                       : 1 h 42 min
Bit rate                       : 47 b/s
Count of elements              : 1183
Stream size                    : 36.0 KiB (0%)
Title                          : Czech
Language                       : Czech
Default                        : No
Forced                         : No

Text #7
ID                             : 9
Format                         : UTF-8
Codec ID                       : S_TEXT/UTF8
Codec ID/Info                  : UTF-8 Plain Text
Duration                       : 1 h 42 min
Bit rate                       : 46 b/s
Count of elements              : 1188
Stream size                    : 35.2 KiB (0%)
Title                          : Danish
Language                       : Danish
Default                        : No
Forced                         : No

Text #8
ID                             : 10
Format                         : UTF-8
Codec ID                       : S_TEXT/UTF8
Codec ID/Info                  : UTF-8 Plain Text
Duration                       : 1 h 42 min
Bit rate                       : 48 b/s
Count of elements              : 1090
Stream size                    : 36.7 KiB (0%)
Title                          : Dutch
Language                       : Dutch
Default                        : No
Forced                         : No

Text #9
ID                             : 11
Format                         : UTF-8
Codec ID                       : S_TEXT/UTF8
Codec ID/Info                  : UTF-8 Plain Text
Duration                       : 1 h 42 min
Bit rate                       : 45 b/s
Count of elements              : 1381
Stream size                    : 34.1 KiB (0%)
Title                          : European Spanish
Language                       : Spanish
Default                        : No
Forced                         : No

Text #10
ID                             : 12
Format                         : UTF-8
Codec ID                       : S_TEXT/UTF8
Codec ID/Info                  : UTF-8 Plain Text
Duration                       : 1 h 42 min
Bit rate                       : 44 b/s
Count of elements              : 1046
Stream size                    : 33.1 KiB (0%)
Title                          : Finnish
Language                       : Finnish
Default                        : No
Forced                         : No

Text #11
ID                             : 13
Format                         : UTF-8
Codec ID                       : S_TEXT/UTF8
Codec ID/Info                  : UTF-8 Plain Text
Duration                       : 1 h 42 min
Bit rate                       : 83 b/s
Count of elements              : 1343
Stream size                    : 62.5 KiB (0%)
Title                          : Greek
Language                       : Greek
Default                        : No
Forced                         : No

Text #12
ID                             : 14
Format                         : UTF-8
Codec ID                       : S_TEXT/UTF8
Codec ID/Info                  : UTF-8 Plain Text
Duration                       : 1 h 42 min
Bit rate                       : 79 b/s
Count of elements              : 1204
Stream size                    : 59.4 KiB (0%)
Title                          : Hebrew
Language                       : Hebrew
Default                        : No
Forced                         : No

Text #13
ID                             : 15
Format                         : UTF-8
Codec ID                       : S_TEXT/UTF8
Codec ID/Info                  : UTF-8 Plain Text
Duration                       : 1 h 42 min
Bit rate                       : 49 b/s
Count of elements              : 1210
Stream size                    : 37.2 KiB (0%)
Title                          : Hungarian
Language                       : Hungarian
Default                        : No
Forced                         : No

Text #14
ID                             : 16
Format                         : UTF-8
Codec ID                       : S_TEXT/UTF8
Codec ID/Info                  : UTF-8 Plain Text
Duration                       : 1 h 42 min
Bit rate                       : 47 b/s
Count of elements              : 1202
Stream size                    : 36.0 KiB (0%)
Title                          : Indonesian
Language                       : Indonesian
Default                        : No
Forced                         : No

Text #15
ID                             : 17
Format                         : UTF-8
Codec ID                       : S_TEXT/UTF8
Codec ID/Info                  : UTF-8 Plain Text
Duration                       : 1 h 42 min
Bit rate                       : 49 b/s
Count of elements              : 1200
Stream size                    : 37.1 KiB (0%)
Title                          : Italian
Language                       : Italian
Default                        : No
Forced                         : No

Text #16
ID                             : 18
Format                         : UTF-8
Codec ID                       : S_TEXT/UTF8
Codec ID/Info                  : UTF-8 Plain Text
Duration                       : 1 h 42 min
Bit rate                       : 50 b/s
Count of elements              : 1403
Stream size                    : 37.8 KiB (0%)
Title                          : Japanese
Language                       : Japanese
Default                        : No
Forced                         : No

Text #17
ID                             : 19
Format                         : UTF-8
Codec ID                       : S_TEXT/UTF8
Codec ID/Info                  : UTF-8 Plain Text
Duration                       : 1 h 42 min
Bit rate                       : 61 b/s
Count of elements              : 1241
Stream size                    : 46.3 KiB (0%)
Title                          : Korean
Language                       : Korean
Default                        : No
Forced                         : No

Text #18
ID                             : 20
Format                         : UTF-8
Codec ID                       : S_TEXT/UTF8
Codec ID/Info                  : UTF-8 Plain Text
Duration                       : 1 h 42 min
Bit rate                       : 48 b/s
Count of elements              : 1196
Stream size                    : 36.1 KiB (0%)
Title                          : Malay
Language                       : Malay
Default                        : No
Forced                         : No

Text #19
ID                             : 21
Format                         : UTF-8
Codec ID                       : S_TEXT/UTF8
Codec ID/Info                  : UTF-8 Plain Text
Duration                       : 1 h 42 min
Bit rate                       : 46 b/s
Count of elements              : 1110
Stream size                    : 34.6 KiB (0%)
Title                          : Norwegian
Language                       : Norwegian Bokmal
Default                        : No
Forced                         : No

Text #20
ID                             : 22
Format                         : UTF-8
Codec ID                       : S_TEXT/UTF8
Codec ID/Info                  : UTF-8 Plain Text
Duration                       : 1 h 42 min
Bit rate                       : 47 b/s
Count of elements              : 1162
Stream size                    : 36.0 KiB (0%)
Title                          : Polish
Language                       : Polish
Default                        : No
Forced                         : No

Text #21
ID                             : 23
Format                         : UTF-8
Codec ID                       : S_TEXT/UTF8
Codec ID/Info                  : UTF-8 Plain Text
Duration                       : 1 h 42 min
Bit rate                       : 49 b/s
Count of elements              : 1212
Stream size                    : 37.2 KiB (0%)
Title                          : Portuguese
Language                       : Portuguese
Default                        : No
Forced                         : No

Text #22
ID                             : 24
Format                         : UTF-8
Codec ID                       : S_TEXT/UTF8
Codec ID/Info                  : UTF-8 Plain Text
Duration                       : 1 h 42 min
Bit rate                       : 47 b/s
Count of elements              : 1280
Stream size                    : 36.0 KiB (0%)
Title                          : Portuguese Brazilian
Language                       : Portuguese
Default                        : No
Forced                         : No

Text #23
ID                             : 25
Format                         : UTF-8
Codec ID                       : S_TEXT/UTF8
Codec ID/Info                  : UTF-8 Plain Text
Duration                       : 1 h 42 min
Bit rate                       : 56 b/s
Count of elements              : 1162
Stream size                    : 42.1 KiB (0%)
Title                          : Romanian
Language                       : Romanian
Default                        : No
Forced                         : No

Text #24
ID                             : 26
Format                         : UTF-8
Codec ID                       : S_TEXT/UTF8
Codec ID/Info                  : UTF-8 Plain Text
Duration                       : 1 h 42 min
Bit rate                       : 77 b/s
Count of elements              : 1212
Stream size                    : 58.4 KiB (0%)
Title                          : Russian
Language                       : Russian
Default                        : No
Forced                         : No

Text #25
ID                             : 27
Format                         : UTF-8
Codec ID                       : S_TEXT/UTF8
Codec ID/Info                  : UTF-8 Plain Text
Duration                       : 1 h 42 min
Bit rate                       : 48 b/s
Count of elements              : 1222
Stream size                    : 36.5 KiB (0%)
Title                          : Spanish
Language                       : Spanish
Default                        : No
Forced                         : No

Text #26
ID                             : 28
Format                         : UTF-8
Codec ID                       : S_TEXT/UTF8
Codec ID/Info                  : UTF-8 Plain Text
Duration                       : 1 h 42 min
Bit rate                       : 46 b/s
Count of elements              : 1119
Stream size                    : 35.3 KiB (0%)
Title                          : Swedish
Language                       : Swedish
Default                        : No
Forced                         : No

Text #27
ID                             : 29
Format                         : UTF-8
Codec ID                       : S_TEXT/UTF8
Codec ID/Info                  : UTF-8 Plain Text
Duration                       : 1 h 42 min
Bit rate                       : 137 b/s
Count of elements              : 1210
Stream size                    : 103 KiB (0%)
Title                          : Thai
Language                       : Thai
Default                        : No
Forced                         : No

Text #28
ID                             : 30
Format                         : UTF-8
Codec ID                       : S_TEXT/UTF8
Codec ID/Info                  : UTF-8 Plain Text
Duration                       : 1 h 42 min
Bit rate                       : 48 b/s
Count of elements              : 1313
Stream size                    : 36.7 KiB (0%)
Title                          : Turkish
Language                       : Turkish
Default                        : No
Forced                         : No

Text #29
ID                             : 31
Format                         : UTF-8
Codec ID                       : S_TEXT/UTF8
Codec ID/Info                  : UTF-8 Plain Text
Duration                       : 1 h 42 min
Bit rate                       : 78 b/s
Count of elements              : 1178
Stream size                    : 58.6 KiB (0%)
Title                          : Ukrainian
Language                       : Ukrainian
Default                        : No
Forced                         : No

视频截图

下载地址

圣诞男孩.官译简繁英多字幕.A.Boy.Called.Christmas.2021.1080p.Web.H264-纯净版 3.41GB:magnet:?xt=urn:btih:CFF6C2026B536DDB3DAC21274BD5E5ADC3E4CE2C

Visits: 32

留下评论

LightDark
LightDark