[2021中国剧情动作]《峰爆》[中字][WEB-MKV-1080p/2160p(4k)]

%title插图%num

◎译  名 峰爆 / 无限救援 / 无限深度 / Cloudy Mountain / Infinite Depth
◎年  代 2021
◎产  地 中国大陆
◎类  别 剧情 / 动作 / 灾难
◎语  言 汉语普通话
◎上映日期 2021-09-17(中国大陆)
◎IMDb链接 https://www.imdb.com/title/tt15413054/
◎豆瓣评分 6.3/10 (110289人评价)
◎豆瓣链接 https://movie.douban.com/subject/35231370/
◎片  长 114分钟
◎导  演 李骏 Jun Li (id:1320190)
◎编  剧 沙颂 Song Sha (id:1327765)
       李骏 Jun Li (id:1320190)
◎演  员 朱一龙 Yilong Zhu (id:1318883)
       黄志忠 Zhizhong Huang (id:1255860)
       陈数 Shu Chen (id:1274346)
       焦俊艳 Junyan Jiao (id:1312818)
       成泰燊 Taishen Cheng (id:1196361)
       王戈 Ge Wang (id:1375802)
       卢思宇 Siyu Lu (id:1435098)
       洪剑涛 Jiantao Hong (id:1274654)
       周晓鸥 Xiaoou Zhou (id:1316334)
       斌子 Zi Bin (id:1322802)
       孙一理 Yi-li Sun (id:1316040)
       黄超 Chao Huang (id:1422009)
       闫鹏 Peng Yan (id:1433697)
       张国立 Guoli Zhang (id:1015115)
       张译 Yi Zhang (id:1274761)
       白客 White. K (id:1332932)
       乔欣 Xin Qiao (id:1351423)
       李光洁 Guangjie Li (id:1275178)
       乔振宇 Zhenyu Qiao (id:1275683)
       章申 Shen Zhang (id:1314409)
       于莎莎 Shasha Yu (id:1327598)
       陶虹 Hong Tao (id:1015199)
       陈卓 Zhuo Chen (id:1460651)
       赵晓时 Xiaoshi Zhao (id:1310556)
       焦宏奋 Hongfen Jiao (id:1412277)
       傅若清 Ruoqing Fu (id:1417588)
       许建海 Jianhai Xu (id:1384186)
       崔陆萌 Lumeng Cui (id:1349292)
       陈洁 Jie Chen (id:1449063)
       杨东 Dong Yang (id:1403121)
       郭思达 Sida Guo (id:1392594)
       张杰 Jie Zhang (id:1274727)
       赵晓时 Xiaoshi Zhao (id:1310556)
       罗礼贤 Bruce Law (id:1289542)
       罗义民 Norman Law (id:1316462)
       张冀 Ji Zhang (id:1327606)
       陶虹 Hong Tao (id:1015199)

◎标  签 灾难 / 救援 / 中国铁建 / 中国大陆 / 动作 / 2021 / 剧情 / 献礼片

◎简  介
  一座修建十年的隧道即将竣工之际,受全球地质变动影响,地裂、地震、山体滑坡、泥石流等一系列地质灾害呼啸而至,隧道与整个县城危在旦夕,“老洪”洪赟兵(黄志忠 饰)、“小洪”洪翼舟(朱一龙 饰)父子俩于绝境处挺身而出,他们如何与16万人度过这场生死危机?

视频信息

General
Unique ID                      : 78194757728320932656223475285059486216 (0x3AD3C335D7741A969BEC92B224CCC208)
Complete name                  : D:\迅雷下载\【更多高清电影访问 www.BBQDDQ.com】峰爆[国语配音+中文字幕].Cloudy.Mountain.2021.2160p.WEB-DL.60FPS.H265.DDP5.1.Atmos-10003@BBQDDQ.COM 6.38GB\Cloudy.Mountain.2021.2160p.WEB-DL.60FPS.H265.DDP5.1.Atmos-10003@BBQDDQ.COM.mkv
Format                         : Matroska
Format version                 : Version 4
File size                      : 6.38 GiB
Duration                       : 1 h 54 min
Overall bit rate               : 7 981 kb/s
Encoded date                   : UTC 2021-10-29 10:22:02
Writing application            : mkvmerge v50.0.0 ('Awakenings') 64-bit
Writing library                : libebml v1.4.0 + libmatroska v1.6.2

Video
ID                             : 1
Format                         : HEVC
Format/Info                    : High Efficiency Video Coding
Format profile                 : Main 10@L5.1@Main
Codec ID                       : V_MPEGH/ISO/HEVC
Duration                       : 1 h 54 min
Bit rate                       : 7 339 kb/s
Width                          : 3 840 pixels
Height                         : 1 920 pixels
Display aspect ratio           : 2.000
Frame rate mode                : Constant
Frame rate                     : 60.000 FPS
Color space                    : YUV
Chroma subsampling             : 4:2:0
Bit depth                      : 10 bits
Bits/(Pixel*Frame)             : 0.017
Stream size                    : 5.87 GiB (92%)
Language                       : Chinese
Default                        : Yes
Forced                         : No
Color range                    : Limited
Color primaries                : BT.709
Transfer characteristics       : BT.709
Matrix coefficients            : BT.709

Audio #1
ID                             : 2
Format                         : E-AC-3 JOC
Format/Info                    : Enhanced AC-3 with Joint Object Coding
Commercial name                : Dolby Digital Plus with Dolby Atmos
Codec ID                       : A_EAC3
Duration                       : 1 h 54 min
Bit rate mode                  : Constant
Bit rate                       : 448 kb/s
Channel(s)                     : 6 channels
Channel layout                 : L R C LFE Ls Rs
Sampling rate                  : 48.0 kHz
Frame rate                     : 31.250 FPS (1536 SPF)
Compression mode               : Lossy
Stream size                    : 367 MiB (6%)
Title                          : DDP5.1 with Atmos
Language                       : Chinese
Service kind                   : Complete Main
Default                        : Yes
Forced                         : No
Complexity index               : 16
Number of dynamic objects      : 15
Bed channel count              : 1 channel
Bed channel configuration      : LFE

Audio #2
ID                             : 3
Format                         : AAC LC
Format/Info                    : Advanced Audio Codec Low Complexity
Codec ID                       : A_AAC-2
Duration                       : 1 h 54 min
Bit rate                       : 192 kb/s
Channel(s)                     : 2 channels
Channel layout                 : L R
Sampling rate                  : 44.1 kHz
Frame rate                     : 43.066 FPS (1024 SPF)
Compression mode               : Lossy
Stream size                    : 155 MiB (2%)
Title                          : AAC2.0
Language                       : Chinese
Default                        : No
Forced                         : No

视频截图

下载地址

峰爆[国语配音+中文字幕].Cloudy.Mountain.2021.2160p.WEB-DL.60FPS.H265.DDP5.1.Atmos-10003@BBQDDQ.COM 6.38GB:magnet:?xt=urn:btih:8294E12BCF305C08803BD47B3FEB6B4B9BBB6A5F

峰爆[国语配音+中文字幕].Cloudy.Mountain.2021.1080p.WEB-DL.H264.DDP5.1-10006@BBQDDQ.COM 2.09GB:magnet:?xt=urn:btih:EBD198BBFAF361FB2BD538D6B6CC4D1B70B99AA0

留下评论

Secured By miniOrange