[2020日本剧情动画]《STAND BY ME ?ラえもん2:哆啦A梦:伴我同行2》[国粤台日四语.简繁字幕][BD-MKV-1080p]

%title插图%num

◎译  名 哆啦A梦:伴我同行2/机器猫:伴我同行2/小叮当:伴我同行2/与我同行的哆啦A梦2/Doraemon 3D: Stand by Me 2/Stand by Me Doraemon 2
◎片  名 STAND BY ME ?ラえもん2
◎年  代 2020
◎产  地 日本
◎类  别 剧情/动画
◎上映日期 2020-11-20(日本)/2021-05-28(中国大陆)
◎IMDb链接  https://www.imdb.com/title/tt13428402/
◎豆瓣评分 7.2/10 from 74408 users
◎豆瓣链接 https://douban.com/subject/34913671/
◎片  长 96分钟
◎导  演 八木龙一 Ryuichi Yagi / 山崎贵 Takashi Yamazaki
◎编  剧 山崎贵 Takashi Yamazaki / 藤子·F·不二雄 F. Fujio Fujiko
◎主  演 水田山葵 Wasabi Mizuta
       大原惠美 Megumi Oohara
       嘉数由美 Yumi Kakazu
       木村昴 Subaru Kimura
       关智一 Tomokazu Seki
       妻夫木聪 Satoshi Tsumabuki
       宫本信子 Nobuko Miyamoto
       三石琴乃 Kotono Mitsuishi
       松本保典 Yasunori Matsumoto
       笨蛋节奏 Bakarhythm
       羽鸟慎一 Shinichi Hatori

◎标  签 哆啦A梦 | 温情 | 日本 | 日本动画 | 动画 | 动漫 | 剧场版 | 电影

◎简  介

某天,大雄(大原惠美 配音)偶然发现了童年时奶奶为自己缝制的玩偶熊,于是央求哆啦A梦(水田山葵 配音)去往过去看望已不再人世的奶奶(宫本信子 配音),大雄与奶奶重逢之后,奶奶希望能看到大雄长大结婚时的样子,答应奶奶的大雄与哆啦A梦则再一次的返回了未来,婚礼如期举行的那天,所有人都到了场,但最重要的新郎成年大雄(妻夫木聪 配音)居然不在现场,情急之下,哆啦A梦让大雄假扮成年时的自己与静香结婚(嘉数由美 配音),然而真正的成年大雄究竟去了哪里呢?

◎获奖情况

第44届日本电影学院奖  (2021)
  最佳动画片(提名)

视频信息

General
Unique ID                      : 171771934853957823690356984416870385193 (0x813A124053CB98D28E422D7ED2D0C629)
Complete name                  : E:\DSfile\【更多高清电影访问 www.BBQDDQ.com】哆啦A梦:伴我同行2[国粤日四音轨+简繁字幕].Stand.by.Me.Doraemon.2.2020.RERiP.1080p.BluRay.x264.DTS-10012@BBQDDQ.COM 13(1).16GB\Stand.by.Me.Doraemon.2.2020.RERiP.1080p.BluRay.x264.DTS-10012@BBQDDQ.COM.mkv
Format                         : Matroska
Format version                 : Version 1
File size                      : 13.2 GiB
Duration                       : 1 h 35 min
Overall bit rate               : 19.7 Mb/s
Movie name                     : Jubowo @ WiKi
Encoded date                   : UTC 2021-10-31 01:25:45
Writing application            : mkvmerge v2.2.0 ('Turn It On Again') built on Mar  4 2008 13:20:25
Writing library                : libebml v0.7.7 + libmatroska v0.8.1
Attachments                    : MSYH.TTF / MSYH_chscht.ttf / MSYHBD.TTF / tahoma.ttf / MSYH.TTF / MSYHBD.TTF / tahoma.ttf / MSYH_chscht.ttf

Video
ID                             : 1
Format                         : AVC
Format/Info                    : Advanced Video Codec
Format profile                 : High@L4.1
Format settings                : CABAC / 4 Ref Frames
Format settings, CABAC         : Yes
Format settings, Reference fra : 4 frames
Codec ID                       : V_MPEG4/ISO/AVC
Duration                       : 1 h 35 min
Bit rate                       : 16.3 Mb/s
Width                          : 1 920 pixels
Height                         : 1 036 pixels
Display aspect ratio           : 1.85:1
Frame rate mode                : Constant
Frame rate                     : 23.976 (24000/1001) FPS
Color space                    : YUV
Chroma subsampling             : 4:2:0
Bit depth                      : 8 bits
Scan type                      : Progressive
Bits/(Pixel*Frame)             : 0.342
Stream size                    : 10.7 GiB (82%)
Writing library                : x264 core 133 r2334 a3ac64b
Encoding settings              : cabac=1 / ref=4 / deblock=1:-1:-1 / analyse=0x3:0x113 / me=umh / subme=11 / psy=1 / psy_rd=1.00:0.00 / mixed_ref=1 / me_range=64 / chroma_me=1 / trellis=2 / 8x8dct=1 / cqm=0 / deadzone=21,11 / fast_pskip=0 / chroma_qp_offset=-4 / threads=36 / lookahead_threads=6 / sliced_threads=0 / nr=0 / decimate=0 / interlaced=0 / bluray_compat=0 / constrained_intra=0 / bframes=8 / b_pyramid=2 / b_adapt=2 / b_bias=0 / direct=3 / weightb=1 / open_gop=0 / weightp=2 / keyint=250 / keyint_min=23 / scenecut=40 / intra_refresh=0 / rc=2pass / mbtree=0 / bitrate=16300 / ratetol=1.0 / qcomp=0.60 / qpmin=0 / qpmax=69 / qpstep=4 / cplxblur=20.0 / qblur=0.5 / ip_ratio=1.40 / pb_ratio=1.30 / aq=1:0.80
Language                       : English
Default                        : Yes
Forced                         : No

Audio #1
ID                             : 2
Format                         : AC-3
Format/Info                    : Audio Coding 3
Commercial name                : Dolby Digital
Codec ID                       : A_AC3
Duration                       : 1 h 35 min
Bit rate mode                  : Constant
Bit rate                       : 640 kb/s
Channel(s)                     : 6 channels
Channel layout                 : L R C LFE Ls Rs
Sampling rate                  : 48.0 kHz
Frame rate                     : 31.250 FPS (1536 SPF)
Compression mode               : Lossy
Stream size                    : 439 MiB (3%)
Title                          : 日语
Language                       : Japanese
Service kind                   : Complete Main
Default                        : No
Forced                         : No

Audio #2
ID                             : 3
Format                         : DTS
Format/Info                    : Digital Theater Systems
Codec ID                       : A_DTS
Duration                       : 1 h 35 min
Bit rate mode                  : Constant
Bit rate                       : 1 509 kb/s
Channel(s)                     : 6 channels
Channel layout                 : C L R Ls Rs LFE
Sampling rate                  : 48.0 kHz
Frame rate                     : 93.750 FPS (512 SPF)
Bit depth                      : 16 bits
Compression mode               : Lossy
Stream size                    : 1.01 GiB (8%)
Title                          : 中影公映国语
Language                       : Chinese
Default                        : Yes
Forced                         : No

Audio #3
ID                             : 4
Format                         : AC-3
Format/Info                    : Audio Coding 3
Commercial name                : Dolby Digital
Codec ID                       : A_AC3
Duration                       : 1 h 35 min
Bit rate mode                  : Constant
Bit rate                       : 448 kb/s
Channel(s)                     : 6 channels
Channel layout                 : L R C LFE Ls Rs
Sampling rate                  : 48.0 kHz
Frame rate                     : 31.250 FPS (1536 SPF)
Compression mode               : Lossy
Stream size                    : 307 MiB (2%)
Title                          : 台配国语
Language                       : Chinese
Service kind                   : Complete Main
Default                        : No
Forced                         : No

Audio #4
ID                             : 5
Format                         : AC-3
Format/Info                    : Audio Coding 3
Commercial name                : Dolby Digital
Codec ID                       : A_AC3
Duration                       : 1 h 35 min
Bit rate mode                  : Constant
Bit rate                       : 640 kb/s
Channel(s)                     : 6 channels
Channel layout                 : L R C LFE Ls Rs
Sampling rate                  : 48.0 kHz
Frame rate                     : 31.250 FPS (1536 SPF)
Compression mode               : Lossy
Stream size                    : 439 MiB (3%)
Title                          : 粤语
Language                       : Chinese
Service kind                   : Complete Main
Default                        : No
Forced                         : No

Text #1
ID                             : 6
Format                         : ASS
Codec ID                       : S_TEXT/ASS
Codec ID/Info                  : Advanced Sub Station Alpha
Compression mode               : Lossless
Title                          : chs_Zho
Language                       : Chinese
Default                        : Yes
Forced                         : No

Text #2
ID                             : 7
Format                         : ASS
Codec ID                       : S_TEXT/ASS
Codec ID/Info                  : Advanced Sub Station Alpha
Compression mode               : Lossless
Title                          : chs_TW
Language                       : Chinese
Default                        : No
Forced                         : No

Text #3
ID                             : 8
Format                         : ASS
Codec ID                       : S_TEXT/ASS
Codec ID/Info                  : Advanced Sub Station Alpha
Compression mode               : Lossless
Title                          : cht_Can
Language                       : Chinese
Default                        : No
Forced                         : No

视频截图

下载地址

哆啦A梦:伴我同行2[国粤日四音轨+简繁字幕].Stand.by.Me.Doraemon.2.2020.RERiP.1080p.BluRay.x264.DTS-10012@BBQDDQ.COM 13.16GB:magnet:?xt=urn:btih:F970F96330DDEF7FC1EA6B27DF6A121188F11C47

哆啦A梦:伴我同行[国粤日四音轨+简体字幕].Stand.By.Me.Doraemon.2014.RERiP.1080p.BluRay.x264.DTS-10012@BBQDDQ.COM 10.50GB:magnet:?xt=urn:btih:DBD85141C6C0A987F9218082D15C5DA489E5FECD

[哆啦A梦剧场版][Doraemon_Movie][1980-2015][01-36][国粤日3音轨][简繁字幕] 129.3GB:magnet:?xt=urn:btih:BA74F6E1F7B5D008440F85FC59983C63866CD949

哆啦A梦:新·大雄的日本诞生.2016.国粤日三语.简繁中字£CMCT梦幻 3.57GB:magnet:?xt=urn:btih:B7210A24A62A19145AA5DBACF158BDD0C4EE030E

哆啦A梦:大雄的南极冰冰凉大冒险.2017.1080p.BluRay.x264.3Audio.CHS-BT4K 3.70GB:magnet:?xt=urn:btih:1F2BEBE8E69D7CA98975378B87BFCCAF912544BE

哆啦A梦.大雄的金银岛.Doraemon.Nobita.no.Takarajima.2018.1080p.BluRay.x264.3Audio.CHS-Lieqiwang 4.06GB:magnet:?xt=urn:btih:611658BD7F9C6CCEDC0878119AB95C72D064D750

哆啦A梦:大雄的月球探险记.2019.720p.国粤台日四语.简繁中字£CMCT无尽 4.42GB:magnet:?xt=urn:btih:FFC3F7C187DFC5DAEFC8574B24FD8F02D5FD0ECC

哆啦A梦:大雄的新恐龙.BD.1080P.国粤日三语中字.mkv 1.70GB:magnet:?xt=urn:btih:7920AC7CAB009DC13E63519B0C0CEF2B2A44B62B

留下评论

Secured By miniOrange