[2021英国惊悚恐怖]《Halloween Kills:月光光心慌慌:杀戮》[中字][WEB-MKV-1080p]

%title插图%num

◎译  名 月光光心慌慌:杀戮//万圣节杀戮/月光光殺清光(港)/月光光心慌慌:万圣节杀戮/月光光新慌慌:万圣杀(台)
◎片  名 Halloween Kills
◎年  代 2021
◎产  地 英国/美国
◎类  别 惊悚/恐怖
◎语  言 英语
◎上映日期 2021-09-08(威尼斯电影节)/2021-10-15(美国/美国网络)
◎IMDb评分  5.8/10 from 44604 users
◎IMDb链接  https://www.imdb.com/title/tt10665338/
◎豆瓣评分 5.0/10 from 2711 users
◎豆瓣链接 https://douban.com/subject/34626280/
◎片  长 106分钟
◎导  演 大卫·戈登·格林 David Gordon Green
◎编  剧 约翰·卡朋特 John Carpenter / 大卫·戈登·格林 David Gordon Green / 黛布拉·希尔 Debra Hill / 丹尼·麦克布莱德 Danny McBride / 斯科特·泰姆斯 Scott Teems
◎主  演 朱迪·格雷尔 Judy Greer
       杰米·李·柯蒂斯 Jamie Lee Curtis
       安东尼·迈克尔·豪尔 Anthony Michael Hall
       凯尔·理查兹 Kyle Richards
       安迪·马蒂切克 Andi Matichak
       迪伦·阿诺德 Dylan Arnold
       尼克·卡斯特尔 Nick Castle
       罗伯特·朗斯特里特 Robert Longstreet
       Charles Cyphers Charles Cyphers
       奥马尔·J·多尔西 Omar J. Dorsey
       南希·斯蒂芬斯 Nancy Stephens
       詹姆斯·裘德·柯特尼 James Jude Courtney
       吉布瑞尔·南谭布 Jibrail Nantambu
       布莱恩·杜尔金 Brian F. Durkin
       Drew Broderick Drew Broderick
        Matthew Warzel
       安迪·贝西亚 Andy Bethea
       Tanya Jacobson Tanya Jacobson
       迪索·拉莫斯 Diezel Ramos
       卡德罗莎·奥娜·卡罗尔

◎标  签 恐怖 | 惊悚 | 美国 | 悬疑/惊悚/恐怖/犯罪 | 犯罪 | 美国电影 | 杰米·李·柯蒂斯 | 约翰·卡朋特

◎简  介

  杀人狂魔迈尔斯和杰米·李·柯蒂斯饰演的Laurie Strode将继续纠缠,大卫·戈登·格林继续执导。

    迈克尔迈尔斯回来的万圣节之夜还没有结束。在劳里·斯特罗德(柯蒂斯饰)、她的女儿凯伦(朱迪·格里尔饰)和孙女艾莉森(安迪·马蒂查克饰)将蒙面怪物迈克尔·迈尔斯关在笼子里并在劳里的地下室燃烧几分钟后,劳里被送往医院,伤势危及生命,相信她终于死了她终生的折磨。但当迈克尔设法摆脱劳里的陷阱时,他的仪式性大屠杀又开始了。当劳里与她的痛苦作斗争并准备保护自己免受他的伤害时,她激励整个哈登菲尔德站起来对抗他们不可阻挡的怪物。Strode 妇女加入了迈克尔第一次横冲直撞的其他幸存者,他们决定将事情掌握在自己手中,组成了一个义警暴徒,开始一劳永逸地追捕迈克尔。

视频信息

General
Unique ID                   : 252678696040763645461208088044877600456 (0xBE18258E38732934BC0E72E4E02356C8)
Complete name               : D:\迅雷下载\Halloween.Kills.2021.WEB-DL.1080p.X264\月光光心慌慌:杀戮.Halloween.Kills.2021.WEB-DL.1080p.X264.mkv
Format                      : Matroska
Format version              : Version 2
File size                   : 2.03 GiB
Duration                    : 1 h 45 min
Overall bit rate            : 2 756 kb/s
Encoded date                : UTC 2021-10-30 15:44:52
Writing application         : mkvmerge v4.8.0 ('I Got The...') 编译于 May 24 2011 03:12:58
Writing library             : libebml v1.2.0 + libmatroska v1.1.0

Video
ID                          : 1
Format                      : AVC
Format/Info                 : Advanced Video Codec
Format profile              : High@L4.1
Format settings             : CABAC / 4 Ref Frames
Format settings, CABAC      : Yes
Format settings, Reference  : 4 frames
Muxing mode                 : Header stripping
Codec ID                    : V_MPEG4/ISO/AVC
Duration                    : 1 h 45 min
Bit rate                    : 2 500 kb/s
Width                       : 1 920 pixels
Height                      : 804 pixels
Display aspect ratio        : 2.40:1
Frame rate mode             : Constant
Frame rate                  : 23.976 (23976/1000) FPS
Color space                 : YUV
Chroma subsampling          : 4:2:0
Bit depth                   : 8 bits
Scan type                   : Progressive
Bits/(Pixel*Frame)          : 0.068
Stream size                 : 1.80 GiB (89%)
Writing library             : x264 core 152 r2851M ba24899
Encoding settings           : cabac=1 / ref=4 / deblock=1:-1:-1 / analyse=0x3:0x113 / me=umh / subme=9 / psy=1 / psy_rd=1.00:0.15 / mixed_ref=1 / me_range=24 / chroma_me=1 / trellis=2 / 8x8dct=1 / cqm=0 / deadzone=21,11 / fast_pskip=1 / chroma_qp_offset=-3 / threads=16 / lookahead_threads=4 / sliced_threads=0 / nr=0 / decimate=1 / interlaced=0 / bluray_compat=0 / constrained_intra=0 / bframes=3 / b_pyramid=2 / b_adapt=2 / b_bias=0 / direct=3 / weightb=1 / open_gop=0 / weightp=2 / keyint=250 / keyint_min=25 / scenecut=40 / intra_refresh=0 / rc_lookahead=50 / rc=2pass / mbtree=1 / bitrate=2500 / ratetol=1.0 / qcomp=0.60 / qpmin=0 / qpmax=69 / qpstep=4 / cplxblur=20.0 / qblur=0.5 / vbv_maxrate=31250 / vbv_bufsize=31250 / nal_hrd=none / filler=0 / ip_ratio=1.40 / aq=3:1.00
Default                     : Yes
Forced                      : No

Audio
ID                          : 2
Format                      : AC-3
Format/Info                 : Audio Coding 3
Commercial name             : Dolby Digital
Muxing mode                 : Header stripping
Codec ID                    : A_AC3
Duration                    : 1 h 45 min
Bit rate mode               : Constant
Bit rate                    : 256 kb/s
Channel(s)                  : 6 channels
Channel layout              : L R C LFE Ls Rs
Sampling rate               : 48.0 kHz
Frame rate                  : 31.250 FPS (1536 SPF)
Compression mode            : Lossy
Stream size                 : 193 MiB (9%)
Service kind                : Complete Main
Default                     : Yes
Forced                      : No

Text
ID                          : 3
Format                      : SSA
Codec ID                    : S_TEXT/SSA
Codec ID/Info               : Sub Station Alpha
Compression mode            : Lossless
Default                     : Yes
Forced                      : No

视频截图

下载地址

月光光心慌慌:杀戮.Halloween.Kills.2021.WEB-DL.1080p.X264 2.03GB:magnet:?xt=urn:btih:3CF7E39726090F44B0723C1E77536EE2514C4C5F

月光光心慌慌:杀戮.中英字幕.Halloween Kills 2021 1080p WEB-DL DDP5.1 H264-纯净版 5.45GB:magnet:?xt=urn:btih:0BB0976953F72E9B54C64DEE605028548099C317

月光光心慌慌.2018.BD1080p.中英双字.mp4 2.71GB:magnet:?xt=urn:btih:59ACB7CA05253D8B47D20E1C05FB64F3E8B3EAC0

新万圣节2.2009.BD1080p.中文字幕.mp4 4.73GB:magnet:?xt=urn:btih:85A01B244CBDFF52BC56DFF52B92742B6DA1D119

新万圣节.2007.BD1080p.中文字幕.mp4 3.39GB:magnet:?xt=urn:btih:48228F5535D3809455960A0BDC9B473242415782

月光光心慌慌8.2002.BD1080p.中文字幕.mp4 3.08GB:magnet:?xt=urn:btih:515CAE71E7BDFBF1E2B6D02CE7DDE3AC8C32FEFF

月光光心慌慌8 Halloween.Resurrection.2002.1080p.BluRay.H264.AAC-中文字幕.mkv 1.94GB:magnet:?xt=urn:btih:5F95DE84899156083ED32FFCE13D5ED543D41391

月光光心慌慌7.1998.BD1080p.中文字幕.mp4 2.29GB:magnet:?xt=urn:btih:DD4D5F859FEE3A4A794EF7CB1E0D3B5E0685F202

月光光心慌慌7 .Halloween.H20.20.Years.Later.1998.1080p.BluRay.H264.AAC-中文字幕.mkv 1.86GB:magnet:?xt=urn:btih:905CC413E871C74DA2B0FDE22A090F437F03653C

月光光心慌慌6.1995.BD1080p.中文字幕.mp4 3.45GB:magnet:?xt=urn:btih:E0F512E1978DBDC8C4103DA3AFA60E501786666D

月光光心慌慌6. Halloween.The.Curse.of.Michael.Myers.1995.UNRATED.PRODUCERS.1080p.BluRay.H264.AAC-中文字幕.mkv 2.08GBmagnet:?xt=urn:btih:D8E501B761FBE767CCECA6FE806CFC3CF618580E

月光光心慌慌5.1989.BD1080p.中文字幕.mp4 3.30GB:magnet:?xt=urn:btih:BFDF73EB35667C070017F940F66A18E8F8159554

月光光心慌慌5 Halloween.5.1989.1080p.BluRay.H264.AAC-中文字幕.mkv 2.11GB:magnet:?xt=urn:btih:04AAE55029204F995800A6C0815D36BFC32E0612

月光光心慌慌4.1988.BD1080p.中文字幕.mp4 3.03GB:magnet:?xt=urn:btih:1EEF6118EAACA474D365667D6198236D94E2DEB4

月光光心慌慌4 Halloween.4.The.Return.Of.Michael.Myers.1988.1080p.BluRay.H264.AAC-中文字幕.mkv 1.91GB:magnet:?xt=urn:btih:009FE226CBD432C951E67463A9E357D79E22171D

月光光心慌慌3.1982.BD1080p.中文字幕.mp4 3.09GB:magnet:?xt=urn:btih:085ED8DF9B9D5C5AB5BDAF73B3DD9E4C4CF51C86

月光光心慌慌3 Halloween.III.Season.of.the.Witch.1982.REMASTERED.1080p.BluRay.H264.AAC-中文字幕.mkv 2.15GB:magnet:?xt=urn:btih:948B05A7124249F00D840D5FDDA6DEA45E25F29A

月光光心慌慌2.1981.BD1080p.中文字幕.mp4 3.03GB:magnet:?xt=urn:btih:6C818CB63862B26AC02DFCDBC69B3D176517A19D

月光光心慌慌2 .Halloween.II.1981.REMASTERED.1080p.BluRay.H264.AAC-中文字幕.mkv 2.01GB:magnet:?xt=urn:btih:BE0E47EFF8E1D028E83FA6A3BD697BCCFDC1A293

月光光心慌慌.1978.35周年纪念版.BD1080p.中文字幕.mp4 2.73GB:magnet:?xt=urn:btih:102ED970FB3C0482A000A14EBBF5B9307E41FBEE

留下评论

Secured By miniOrange