[2021中国美食记录]《风味菜谱.全10集》[国语中字][WEB-MKV-2160p(4k)]

%title插图%num

◎片  名 风味菜谱/Flavorful Recipes
◎年  代 2021
◎产  地 中国大陆
◎类  别 美食记录片
◎语  言 汉语普通话
◎上映日期 2021-09-20(中国大陆)
◎豆瓣链接 https://movie.douban.com/subject/35603068/
◎集  数 10
◎监    制 陈晓卿 / Xiaoqing Chen

◎标  签 美食 | 教程 | 风味 | 菜谱

◎简  介 

《风味人间》带我们在世界美食之间穿梭驰骋,体验了前所未有的视听盛宴,唯独留下了“后遗症”:饿。为此,《风味菜谱》集结3位资深大厨,复刻出10道风格各异的风味菜,食材易得、做法简明,只要动动手,就能让风味降落厨房,变成日常餐桌的家常味。

视频信息

General
Complete name                  : E:\追光寻影(zgxybbs.fdns.uk)风味菜谱全10集.国语.Flavorful.Recipes.2021.2160P.WEB-DL.HEVC.AAC-纯净版\追光寻影(zgxybbs.fdns.uk)风味菜谱1.Flavorful.Recipes.2021.E01.2160P.WEB-DL.HEVC.AAC-纯净版\追光寻影(zgxybbs.fdns.uk)风味菜谱1.Flavorful.Recipes.2021.E01.2160P.WEB-DL.HEVC.AAC-纯净版.mp4
Format                         : MPEG-4
Format profile                 : Base Media
Codec ID                       : isom (isom/iso2/mp41)
File size                      : 588 MiB
Duration                       : 2 min 22 s
Overall bit rate               : 34.6 Mb/s
Writing application            : Lavf58.29.100

Video
ID                             : 1
Format                         : HEVC
Format/Info                    : High Efficiency Video Coding
Format profile                 : Main 10@L5.1@Main
Codec ID                       : hvc1
Codec ID/Info                  : High Efficiency Video Coding
Duration                       : 2 min 22 s
Bit rate                       : 34.3 Mb/s
Width                          : 3 840 pixels
Height                         : 2 160 pixels
Display aspect ratio           : 16:9
Frame rate mode                : Constant
Frame rate                     : 50.000 FPS
Color space                    : YUV
Chroma subsampling             : 4:2:0
Bit depth                      : 10 bits
Bits/(Pixel*Frame)             : 0.083
Stream size                    : 583 MiB (99%)
Color range                    : Limited
Color primaries                : BT.709
Transfer characteristics       : BT.709
Matrix coefficients            : BT.709
Codec configuration box        : hvcC

Audio
ID                             : 2
Format                         : AAC LC
Format/Info                    : Advanced Audio Codec Low Complexity
Codec ID                       : mp4a-40-2
Duration                       : 2 min 22 s
Bit rate mode                  : Constant
Bit rate                       : 281 kb/s
Channel(s)                     : 2 channels
Channel layout                 : L R
Sampling rate                  : 48.0 kHz
Frame rate                     : 46.875 FPS (1024 SPF)
Compression mode               : Lossy
Stream size                    : 4.78 MiB (1%)
Default                        : Yes
Alternate group                : 1

视频截图

下载地址

风味菜谱全10集.国语.Flavorful.Recipes.2021.2160P.WEB-DL.HEVC.AAC-纯净版 5.75GB:magnet:?xt=urn:btih:C34DC002BD556C45C6533037AAB00E51F050E61F

风味人间 第一季 Once.Upon.a.Bite.EP01-08.2018.1080p.WEB-DL.x264.AAC-HQC 9.45GB:magnet:?xt=urn:btih:D89EB0549A94184F761E73A59BC30877F13254AC

风味人间.第一季.Once.Upon.A.Bite.S01.2160P.WEB-DL.AAC.H265-DHTCLUB 18.13GB:magnet:?xt=urn:btih:3A60D0550FFEC842ACAF34D65EA1897C3E47162F

风味人间 第二季 Once.Upon.a.Bite.Ⅱ.EP01-08.2020.4K.WEB-DL.HEVC.AAC-HQC 16.79GB:magnet:?xt=urn:btih:17E10C9A5E568693057EEF9E312038FBCF5C9316

风味人间.第二季.Once.Upon.a.Bite.2020.S02.2160p.WEB-DL.H265.AAC-DHTCLUB 16.71GB:magnet:?xt=urn:btih:35A70D07256C5F98D19B5EB85CF1416D003A662D

留下评论

Secured By miniOrange