非常历史课1-10集全

%title插图%num

课程亮点

专为孩子撰写的中国历史,轻松易学; 完整呈现历史轮廓,系统学历史; 增长孩子见识,懂进退,明事理; 建立起时空观、史料实证的科学观念; 培养辩证的历史价值观,提高个人文化修养; 让孩子重新认识历史,愿意学习历史。

%title插图%num

视频信息

General
Complete name                  : C:\新建文件夹\非常历史课\01.大禹治水.mp4
Format                         : MPEG-4
Format profile                 : Base Media
Codec ID                       : isom (isom/iso2/avc1/mp41)
File size                      : 120 MiB
Duration                       : 10 min 21 s
Overall bit rate               : 1 618 kb/s
Writing application            : www.aliyun.com - Media Transcoding

Video
ID                             : 1
Format                         : AVC
Format/Info                    : Advanced Video Codec
Format profile                 : High@L3.1
Format settings                : CABAC / 4 Ref Frames
Format settings, CABAC         : Yes
Format settings, Reference fra : 4 frames
Codec ID                       : avc1
Codec ID/Info                  : Advanced Video Coding
Duration                       : 10 min 21 s
Bit rate                       : 1 484 kb/s
Width                          : 1 280 pixels
Height                         : 720 pixels
Display aspect ratio           : 16:9
Frame rate mode                : Constant
Frame rate                     : 25.000 FPS
Color space                    : YUV
Chroma subsampling             : 4:2:0
Bit depth                      : 8 bits
Scan type                      : Progressive
Bits/(Pixel*Frame)             : 0.064
Stream size                    : 110 MiB (92%)
Codec configuration box        : avcC

Audio
ID                             : 2
Format                         : AAC LC
Format/Info                    : Advanced Audio Codec Low Complexity
Codec ID                       : mp4a-40-2
Duration                       : 10 min 21 s
Duration_LastFrame             : -16 ms
Bit rate mode                  : Constant
Bit rate                       : 128 kb/s
Channel(s)                     : 2 channels
Channel layout                 : L R
Sampling rate                  : 44.1 kHz
Frame rate                     : 43.066 FPS (1024 SPF)
Compression mode               : Lossy
Stream size                    : 9.49 MiB (8%)
Default                        : Yes
Alternate group                : 1

视频截图

下载地址

https://cloud.189.cn/web/share?code=EJraiam2emya(访问码:sev1)

留下评论

Secured By miniOrange