[美剧][2021美国悬疑恐怖]《Creepshow 鬼作秀第1-3季》[中英双字][1080p]

%title插图%num

◎译  名 鬼作秀 第三季
◎片  名 Creepshow Season 3
◎年  代 2021
◎产  地 美国
◎类  别 悬疑/恐怖/奇幻
◎语  言 英语
◎上映日期 2021-09-23(美国)
◎IMDb评分  7.1/10 from 6112 users
◎IMDb链接  https://www.imdb.com/title/tt8762206/
◎豆瓣评分 7.0/10 from 448 users
◎豆瓣链接 https://douban.com/subject/35101083/
◎集  数 6
◎导  演 拉斯提·坎蒂耶夫 / 格里高利·尼克特洛
◎编  剧 格里高利·尼克特洛 / David J. Schow / 乔·希尔 / 埃里克·桑多瓦 / 迈克尔·罗斯塞莱特
◎主  演 伊桑·恩布里 / 布雷登·本森 / 艾琳·博特 / Malone Thomas / 汉娜·凯普尔 / Monica Louwerens / Lowrey Brown / Kaelynn Harris / Olivia Hawthorne / Nico Gomez / Bruce Anthony Shepperson
◎标  签 恐怖 | 美剧 | 惊悚 | 剧情
◎简  介

The fictional Creepshow comic books come to life in this anthology series of terrifying tales hosted by the silent Creepshow ghoul.

视频信息

General
Complete name                  : D:\迅雷下载\creepshow.s03e06.1080p.web.h264-ggez.chs.eng.mp4
Format                         : MPEG-4
Format profile                 : Base Media
Codec ID                       : isom (isom/iso2/avc1/mp41)
File size                      : 1 014 MiB
Duration                       : 55 min 12 s
Overall bit rate mode          : Variable
Overall bit rate               : 2 567 kb/s
Writing application            : Lavf54.35.100

Video
ID                             : 1
Format                         : AVC
Format/Info                    : Advanced Video Codec
Format profile                 : High@L4
Format settings                : CABAC / 3 Ref Frames
Format settings, CABAC         : Yes
Format settings, Reference fra : 3 frames
Codec ID                       : avc1
Codec ID/Info                  : Advanced Video Coding
Duration                       : 55 min 12 s
Bit rate mode                  : Variable
Bit rate                       : 2 434 kb/s
Maximum bit rate               : 7 500 kb/s
Width                          : 1 920 pixels
Height                         : 1 080 pixels
Display aspect ratio           : 16:9
Frame rate mode                : Variable
Frame rate                     : 23.976 (23976/1000) FPS
Minimum frame rate             : 7.692 FPS
Maximum frame rate             : 24.390 FPS
Original frame rate            : 23.976 (24000/1001) FPS
Color space                    : YUV
Chroma subsampling             : 4:2:0
Bit depth                      : 8 bits
Scan type                      : Progressive
Bits/(Pixel*Frame)             : 0.049
Stream size                    : 961 MiB (95%)
Language                       : English
Codec configuration box        : avcC

Audio
ID                             : 2
Format                         : AAC LC
Format/Info                    : Advanced Audio Codec Low Complexity
Codec ID                       : mp4a-40-2
Duration                       : 55 min 12 s
Bit rate mode                  : Constant
Bit rate                       : 128 kb/s
Channel(s)                     : 2 channels
Channel layout                 : L R
Sampling rate                  : 44.1 kHz
Frame rate                     : 43.066 FPS (1024 SPF)
Compression mode               : Lossy
Stream size                    : 50.5 MiB (5%)
Language                       : English
Default                        : Yes
Alternate group                : 1

视频截图

下载地址

第一季

Creepshow.S01E01.Gray.Matter_The.House.of.the.Head.1080p.AMZN.WEB-DL.DDP2.0.H.264-NTG.chs.eng.mp4 864.07MB:magnet:?xt=urn:btih:52C35E2571865CA94A88E9FBFA2188B9D6BF7446

Creepshow.S01E02.Bad.Wolf.Down_The.Finger.1080p.AMZN.WEB-DL.DDP2.0.H.264-NTG.chs.eng.mp4 813.21MB:magnet:?xt=urn:btih:DBD7222170F3895A3004D7674220EB74862AFB79

Creepshow.S01E03.All.Hallows.Eve_The.Man.in.the.Suitcase.1080p.AMZN.WEB-DL.DDP2.0.H.264-NTG.chs.eng.mp4 837.29MB:magnet:?xt=urn:btih:3255E303DA3AE3E1E0EDA5804B07E5246AA59578

Creepshow.S01E04.The.Companion_Lydia.Laynes.Better.Half.1080p.AMZN.WEB-DL.DDP2.0.H.264-NTG.chs.eng.mp4 800.61MB:magnet:?xt=urn:btih:1EBFBEAF0E9D7862677F7551A95577819CE0A146

Creepshow.S01E05.Night.of.the.Paw_Times.is.Tough.in.Musky.Holler.1080p.AMZN.WEB-DL.DDP2.0.H.264-NTG.chs.eng.mp4 832.27MB:magnet:?xt=urn:btih:E872D0DAF1F57F3DA365DB36E1A5136E9EDECEA6

Creepshow.S01E06.Skincrawlers_By.the.Silver.Water.of.Lake.Champlain.REPACK.1080p.AMZN.WEB-DL.DDP2.0.H.264-NTG.chs.eng.mp4 829.45MB:magnet:?xt=urn:btih:20DB79520B81F7D60D6DEB3AA52FE38A7197FA5A

Creep.Show.S00E00.鬼作秀.万圣节特别集.中英字幕.WEBrip.720P-人人影视.mp4 502.1MB:magnet:?xt=urn:btih:91df3fd60a7a5ecf794c4c502f293aa1494b9246

Creep.Show.S00E00.鬼作秀.圣诞特别集.中英字幕.WEBrip.720P-人人影视.mp4 501.4MB:magnet:?xt=urn:btih:445d4b18a676bf2f3df0d54c182d64230fd42095

第二季

Creepshow.S02E01.Model.Kid.Public.Television.Of.The.Dead.1080p.AMZN.WEB-DL.DDP.2.0.H.264-FLUX.chs.eng.mp4 1021.02MB:magnet:?xt=urn:btih:D5CF9232F51227F307DA58832606237B147178DC

Creepshow.S02E02.1080p.AMZN.WEB-DL.DDP.2.0.H.264-FLUX.chs.eng.mp4 768.45MB:magnet:?xt=urn:btih:B0B3386C6AC4B68CE9F6F2E09377FBE19D5182D4

Creepshow.S02E03.1080p.AMZN.WEB-DL.DDP.2.0.H.264-FLUX.chs.eng.mp4 947.74MB:magnet:?xt=urn:btih:4BA084F0D18C8FD2CD7CAD4E066822B754A0F7CC

Creepshow.S02E04.Pipe.Screams.Within.The.Walls.Of.Madness.1080p.AMZN.WEB-DL.DDP.2.0.H.264-FLUX.chs.eng.mp4 805.98MB:magnet:?xt=urn:btih:D18DF21CE6579682264D477A6B2CD0B2F59C203B

Creepshow.S02E05.Night.Of.The.Living.Late.Show.1080p.AMZN.WEB-DL.DDP.2.0.H.264-FLUX.chs.eng.mp4 822.75MB:magnet:?xt=urn:btih:FBBF979AA861A195C2D555A995B611F512C8CE8B

第三季

Creepshow.S03E01.Mumms.Queen.Bee.1080p.AMZN.WEB-DL.DDP2.0.H.264-FLUX.chs.eng.mp4 859.85MB:magnet:?xt=urn:btih:94840CDE8F7EAE933D6D7CAB5C2980AE2D98EFCD

Creepshow.S03E02.Skeletons.In.The.Closet.Familiar.1080p.AMZN.WEB-DL.DDP2.0.H.264-FLUX.chs.eng.mp4 905.46MB:magnet:?xt=urn:btih:HBFUD3U32TMVMH22H4AU3VC54SZGKFLQ

Creepshow.S03E03.The.Last.Tsuburaya.Ok.Ill.Bite.1080p.AMZN.WEB-DL.DDP2.0.H.264-FLUX.chs.eng.mp4 973.41MB:magnet:?xt=urn:btih:C2WS4C66GZFF6YCCJI2CNHYN67YQG7WR

Creepshow.S03E04.Stranger.Sings.Meter.Reader.1080p.AMZN.WEB-DL.DDP2.0.H.264-FLUX.chs.eng.mp4 815.55MB:magnet:?xt=urn:btih:B6VWGL5CJLQ6TEVBHPETFKR4YZHFN6ZU

creepshow.s03e05.1080p.web.h264-ggez.chs.eng.mp4 810.77MB:magnet:?xt=urn:btih:4C3LFMQUQY3PJH7FNXZDMKW4VPKSBC3S

creepshow.s03e06.1080p.web.h264-ggez.chs.eng.mp4 magnet:?xt=urn:btih:S6BFCDK52SEK6LFE6CWH3GYG3IL3NSLZ

留下评论

Secured By miniOrange