[电视剧]《功勋》[第01-48集全][国语中字][1080p/4k]

%title插图%num

◎译  名 Medal of the Republic
◎片  名 功勋
◎年  代 2021
◎产  地 中国大陆
◎类  别 剧情/传记
◎语  言 汉语普通话
◎上映日期 2021-09-26(中国大陆)
◎IMDb链接  https://www.imdb.com/title/tt13885398/
◎豆瓣评分 9.1/10 from 38367 users
◎豆瓣链接 https://douban.com/subject/34951103/
◎集  数 48
◎片  长 41分钟
◎导  演 郑晓龙 Xiaolong Zheng / 沈严 Yan Shen / 林楠 Nan Lin / 杨文军 Wenjun Yang / 毛卫宁 Weining Mao / 康洪雷 Honglei Kang / 阎建钢 Jiangang Yan / 杨阳 Yang Yang
◎编  剧 王小枪 Xiaoqiang Wang / 巩向东 Xiangdong Gong / 徐速 Su Xu / 刘戈建 Gejian Liu / 李修文 Xiuwen Li / 陈枰 Ping Chen / 宋方金 Fangjin Song / 申捷 Jie Shen / 王小平 Xiaoping Wang
◎主  演 雷佳音 Jiayin Lei
       蒋欣 Xin Jiang
       佟大为 Dawei Tong
       王雷 Lei Wang
       郭涛 Tao Guo
       黄志忠 Zhizhong Huang
       黄晓明 Xiaoming Huang
       周迅 Xun Zhou
       靳东 Dong Jin
       倪妮 Ni Ni
       奚美娟 Meijuan Xi
       左小青 Xiaoqing Zuo
       孙俪 Li Sun
       董洁 Jie Dong
       王自健 Zijian Wang
       张颂文 Songwen Zhang
       陈好 Hao Chen
       孙茜 Qian Sun
       于荣光 Ringo Yu
       王洛勇 Luoyong Wang
       是安 An Shi
       李祉默 Zhimo Li
       陈震 Marco Chen
       王文强 Wenqiang Wang
       赵爱诚 
       李依蒙 Lemon
◎标  签 建党100周年献礼剧 | 传记 | 国产剧 | 历史 | 史诗 | 电视剧 | 中国大陆 | 建党百年
◎简  介

  该剧取材于首批八位“共和国勋章”获得者的真实故事,以“国家叙事、时代表达”的艺术手法,用单元剧的形式,将首批八位功勋人物的人生华彩篇章与共和国命运串联起来,诠释了他们“忠诚、执着、朴实”的人生品格和献身祖国人民的崇高境界。
  李延年(王雷 饰):讲述其在抗美援朝战场上的英雄故事。
  于敏(雷佳音 饰):从少年、青年和中年三个时期讲述他投身国防安全事业的故事。
  张富清(郭涛 饰):描绘其作为战斗英雄转业后扎根基层的故事。
  黄旭华(黄晓明 饰):以核潜艇下潜极限为故事压力点和戏剧转折点,再现我国自主研发核潜艇的艰难历程。
  申纪兰(蒋欣 饰):着重展现她首倡”男女同工同酬”并当选第一届全国人大代表的经历。
  孙家栋(佟大为 饰):以无数次的试验失败为切入点,展现其代表的中国科学家永不言弃的探索精神。
  屠呦呦(周迅 饰):展示她研发抗疟新药青蒿素的全过程,并回答人们对其个人获得诺贝尔奖的某些疑惑。
  袁隆平(黄志忠 饰):从梦境展开,讲他如何为祖国和世界人民的温饱问题不懈奋斗。

视频信息

General
Complete name               : E:\Medal.of.the.Republic.EP01-48.2021.4K.60FPS.WEB-DL.HEVC.AAC.10bit-HQC\01.mp4
Format                      : MPEG-4
Format profile              : Base Media
Codec ID                    : isom (isom/iso2/mp41)
File size                   : 2.68 GiB
Duration                    : 46 min 2 s
Overall bit rate            : 8 323 kb/s
Writing application         : Lavf58.42.101

Video
ID                          : 1
Format                      : HEVC
Format/Info                 : High Efficiency Video Coding
Format profile              : Main 10@L5.1@Main
Codec ID                    : hev1
Codec ID/Info               : High Efficiency Video Coding
Duration                    : 46 min 2 s
Bit rate                    : 8 120 kb/s
Width                       : 3 840 pixels
Height                      : 2 160 pixels
Display aspect ratio        : 16:9
Frame rate mode             : Constant
Frame rate                  : 60.000 FPS
Color space                 : YUV
Chroma subsampling          : 4:2:0
Bit depth                   : 10 bits
Bits/(Pixel*Frame)          : 0.016
Stream size                 : 2.61 GiB (98%)
Color range                 : Limited
Color primaries             : BT.709
Transfer characteristics    : BT.709
Matrix coefficients         : BT.709
Codec configuration box     : hvcC

Audio
ID                          : 2
Format                      : AAC LC
Format/Info                 : Advanced Audio Codec Low Complexity
Codec ID                    : mp4a-40-2
Duration                    : 46 min 2 s
Bit rate mode               : Constant
Bit rate                    : 192 kb/s
Channel(s)                  : 2 channels
Channel layout              : L R
Sampling rate               : 44.1 kHz
Frame rate                  : 43.066 FPS (1024 SPF)
Compression mode            : Lossy
Stream size                 : 62.4 MiB (2%)
Default                     : Yes
Alternate group             : 1

视频截图

下载地址

GX.2021.EP01-21.HD1080P.X264.AAC.Mandarin.CHS.Mp4er 18.97GB:magnet:?xt=urn:btih:27BB2FA0349DB0021B8857B9D2A6C06A0C84F886

GX.2021.EP22-25.HD1080P.X264.AAC.Mandarin.CHS.Mp4er 3.5GB:magnet:?xt=urn:btih:0790FECF84A1787C419C2F4C586805B9B7C68D04

GX.2021.EP26-39.HD1080P.X264.AAC.Mandarin.CHS.Mp4er 10.4GB:magnet:?xt=urn:btih:E9A68D9BD44001BC400898003BCA2571A49E35FA

GX.2021.EP40-48.HD1080P.X264.AAC.Mandarin.CHS.Mp4er 6.67GB:magnet:?xt=urn:btih:120CF0CCC1547032AD002DB4644ED89E0967A74C

Medal.of.the.Republic.EP01-48.2021.4K.60FPS.WEB-DL.HEVC.AAC.10bit-HQC 97.42GB:magnet:?xt=urn:btih:7DD297E537D44CD4690BBB2A0FF8E7D2D55C9310

附觉醒年代:

觉醒年代.2021.EP01-43.HD1080P.X264.AAC.Mandarin.CHS.BDE4 22.45GB:magnet:?xt=urn:btih:7EFECCDB6769D1586EFFC5B375CBA9D269EC8C8E

[高码.60FPS]觉醒年代.全43集.2021.WEB-DL.4K.H265.10bit.AAC-AIU 86.84GB:magnet:?xt=urn:btih:8709D8B7EFF4577853310EB8A62FD2397847F710

留下评论

Secured By miniOrange