毒舌电影-7天看懂天下好片1-7集合集[mp4]

%title插图%num

毒舌电影的产品形态包括微信公众号、抖音账号等,内容以提供电影评论和推荐为主,创始人团队来自于网易、《东方早报》《看电影》等媒体,负责选片的人员曾是参与过金马奖评审和上海电影节评审的专家。

毒舌电影曾尝试向产业上游延伸,探索电影生产、放映和发行,以失败告终。毒舌观影团却成长起来,在全国200多个城市建了社群,在70多个城市组织过线下观影活动,基本覆盖了中国的一二线城市。

除了推荐好电影,毒舌电影还开辟了更多服务用户的项目,比如涉足知识付费。何君表示,很多订阅毒舌电影公众号的年轻人都是准备影视考研的,他们有极大的需求获取专业信息。影视考研这条赛道是毒舌接下来会努力跟进的方向。

除此之外,毒舌还在做更多产业化的努力。何君说:“实际上我们有一个产品叫Sir电影私塾,Sir电影私塾是针对整个B端、C端用户一起做的,里面既有B端的考研党,还有C端的影迷的。比如说我们请过杨超导演来讲电影赏析,还请过张颂文老师来讲演技,甚至请过Angelababy的化妆师春楠老师来教化妆。其实不准备成为从业者的人也可以听听课程,所以整个Sir电影私塾就是针对所有用户的,是提升生活方式中的审美,拓展你的人生宽度的。我们依然站在影迷当中,只是我们有更多的机会接触到产业链,所以在产业链里面做一些事。”

视频信息

General
Complete name                  : C:\新建文件夹\毒舌影视丨7天看懂天下好片\1、为什么好莱坞大导演都学他 .mp4
Format                         : MPEG-4
Format profile                 : Base Media
Codec ID                       : isom (isom/iso2/avc1/mp41)
File size                      : 330 MiB
Duration                       : 27 min 57 s
Overall bit rate               : 1 652 kb/s
Movie name                     : 防断更微信.众筹新课微信:mov2017
Album                          : 防断更微信.众筹新课微信:mov2017
Album/Performer                : 防断更微信.众筹新课微信:mov2017
Performer                      : 防断更微信.众筹新课微信:mov2017
Composer                       : 防断更微信.众筹新课微信:mov2017
Writing application            : Lavf56.15.100
Cover                          : Yes
Comment                        : 防断更微信.众筹新课微信:mov2017
disc                           : 防断更微信.众筹新课微信:mov2017

Video
ID                             : 1
Format                         : AVC
Format/Info                    : Advanced Video Codec
Format profile                 : Baseline@L3
Format settings                : 1 Ref Frames
Format settings, CABAC         : No
Format settings, Reference fra : 1 frame
Codec ID                       : avc1
Codec ID/Info                  : Advanced Video Coding
Duration                       : 27 min 57 s
Bit rate                       : 1 518 kb/s
Width                          : 1 280 pixels
Height                         : 720 pixels
Display aspect ratio           : 16:9
Frame rate mode                : Constant
Frame rate                     : 25.000 FPS
Color space                    : YUV
Chroma subsampling             : 4:2:0
Bit depth                      : 8 bits
Scan type                      : Progressive
Bits/(Pixel*Frame)             : 0.066
Stream size                    : 304 MiB (92%)
Writing library                : x264 core 142 r2479 dd79a61
Encoding settings              : cabac=0 / ref=1 / deblock=1:0:0 / analyse=0x1:0x111 / me=hex / subme=2 / psy=1 / psy_rd=1.00:0.00 / mixed_ref=0 / me_range=16 / chroma_me=1 / trellis=0 / 8x8dct=0 / cqm=0 / deadzone=21,11 / fast_pskip=1 / chroma_qp_offset=0 / threads=8 / lookahead_threads=2 / sliced_threads=0 / nr=0 / decimate=1 / interlaced=0 / bluray_compat=0 / constrained_intra=0 / bframes=0 / weightp=0 / keyint=250 / keyint_min=25 / scenecut=40 / intra_refresh=0 / rc_lookahead=10 / rc=crf / mbtree=1 / crf=23.0 / qcomp=0.60 / qpmin=0 / qpmax=69 / qpstep=4 / ip_ratio=1.40 / aq=1:1.00
Codec configuration box        : avcC

Audio
ID                             : 2
Format                         : AAC LC
Format/Info                    : Advanced Audio Codec Low Complexity
Codec ID                       : mp4a-40-2
Duration                       : 27 min 57 s
Duration_LastFrame             : -13 ms
Bit rate mode                  : Constant
Bit rate                       : 128 kb/s
Channel(s)                     : 2 channels
Channel layout                 : L R
Sampling rate                  : 44.1 kHz
Frame rate                     : 43.066 FPS (1024 SPF)
Compression mode               : Lossy
Stream size                    : 25.6 MiB (8%)
Default                        : Yes
Alternate group                : 1

视频截图

目录

0、毒舌电影私塾先导片.mp4
1、为什么好莱坞大导演都学他 .mp4
2、为什么它是影史第一.mp4
3、如何用处女作反好莱坞.mp4
4、为什么他的导演技巧很难被超越.mp4
5、为什么他是诗电影的巅峰.mp4
6、为什么它是华语电影前三.mp4
7、为什么说“电影终结于阿巴斯” .mp4

下载地址

https://cloud.189.cn/web/share?code=NzaeuynQnMr2(访问码:8c2p)

留下评论

Secured By miniOrange