[2021美国惊悚恐怖] Malignant:致命感应 [1080p]

%title插图%num

◎译  名 致命感应 / 恶煞(港) / 疾厄(台) / 肿瘤侠 / 恶毒 / 恶性 / 肿瘤 / Malignant Man
◎片  名 Malignant
◎年  代 2021
◎产  地 美国
◎类  别 惊悚 / 恐怖
◎语  言 英语
◎上映日期 2021-09-01(法国) / 2021-09-10(美国)
◎IMDb链接 https://www.imdb.com/title/tt3811906/
◎豆瓣链接 https://movie.douban.com/subject/25909236/
◎片  长 111分钟
◎导  演 温子仁 James Wan (id:1032122)
       丽贝卡·托马斯 Rebecca Thomas (id:1336471)
◎编  剧 阿克拉·库珀 Akela Cooper (id:1408379)
       温子仁 James Wan (id:1032122)
       英格丽·比苏 Ingrid Bisu (id:1366027)
       扎克·奥尔维奇 Zak Olkewicz (id:1409124)
       J·T·佩蒂 J.T. Petty (id:1294410)
◎演  员 安娜贝拉·沃丽丝 Annabelle Wallis (id:1315815)
       麦肯娜·格瑞丝 Mckenna Grace (id:1340538)
       杰克·阿贝尔 Jake Abel (id:1040561)
       麦蒂·哈森 Maddie Hasson (id:1319257)
       杰奎琳·麦根斯 Jacqueline McKenzie (id:1040666)
       吴宇卫 George Young (id:1357025)
       米歇尔·沃特 Michole White (id:1162209)
       乔恩·李·布罗迪 Jon Lee Brody (id:1230005)
       保拉·马绍尔 Paula Marshall (id:1055000)
       帕特里克·考克斯 Patrick Cox (id:1406295)
       英格丽·比苏 Ingrid Bisu (id:1366027)
       珍·路易莎·凯利 Jean Louisa Kelly (id:1113403)
       基诺·蒙特斯诺斯 Gino Montesinos (id:1115895)
       蕾妮·戴蒙德 Renee Diamond (id:1200714)
       温子仁 James Wan (id:1032122)
       约瑟夫·比沙拉 Joseph Bishara (id:1379186)
       迈克尔·布格斯 Michael Burgess (id:1427916)

◎标  签 温子仁 / 恐怖 / 惊悚 / 美国 / 悬疑 / 2021 / 欧美 / 科幻

◎简  介
  麦迪森(安娜贝拉·沃丽丝 Annabelle Wallis 饰)在梦中不断看到恐怖谋杀案现场的幻象,而这些幻象实际上是真实发生过的凶案,她决定挖掘真相和自己的过去,却发现这一切与一位名叫“盖博瑞”的魔鬼有关。

视频信息

General
Complete name                  : E:\Malignant.2021.HD1080P.X264.AAC.English.CHS-ENG.Mp4er.mp4
Format                         : MPEG-4
Format profile                 : Base Media
Codec ID                       : isom (isom/iso2/avc1/mp41)
File size                      : 3.76 GiB
Duration                       : 1 h 51 min
Overall bit rate               : 4 821 kb/s
Writing application            : Lavf58.29.100

Video
ID                             : 1
Format                         : AVC
Format/Info                    : Advanced Video Codec
Format profile                 : High@L5
Format settings                : CABAC / 11 Ref Frames
Format settings, CABAC         : Yes
Format settings, Reference fra : 11 frames
Codec ID                       : avc1
Codec ID/Info                  : Advanced Video Coding
Duration                       : 1 h 51 min
Bit rate                       : 4 417 kb/s
Width                          : 1 920 pixels
Height                         : 1 080 pixels
Display aspect ratio           : 16:9
Frame rate mode                : Variable
Frame rate                     : 23.976 (24000/1001) FPS
Minimum frame rate             : 23.952 FPS
Maximum frame rate             : 23.981 FPS
Color space                    : YUV
Chroma subsampling             : 4:2:0
Bit depth                      : 8 bits
Scan type                      : Progressive
Bits/(Pixel*Frame)             : 0.089
Stream size                    : 3.44 GiB (92%)
Writing library                : x264 core 157 r2969 d4099dd
Encoding settings              : cabac=1 / ref=11 / deblock=1:-1:-1 / analyse=0x3:0x133 / me=umh / subme=9 / psy=1 / psy_rd=0.80:0.05 / mixed_ref=1 / me_range=30 / chroma_me=1 / trellis=2 / 8x8dct=1 / cqm=0 / deadzone=21,11 / fast_pskip=0 / chroma_qp_offset=-3 / threads=34 / lookahead_threads=8 / sliced_threads=0 / nr=0 / decimate=1 / interlaced=0 / bluray_compat=0 / constrained_intra=0 / bframes=11 / b_pyramid=2 / b_adapt=2 / b_bias=0 / direct=3 / weightb=1 / open_gop=0 / weightp=2 / keyint=590 / keyint_min=120 / scenecut=60 / intra_refresh=0 / rc_lookahead=240 / rc=crf / mbtree=1 / crf=18.0 / qcomp=0.50 / qpmin=0 / qpmax=69 / qpstep=4 / ip_ratio=1.40 / aq=3:0.90
Language                       : English
Codec configuration box        : avcC

Audio
ID                             : 2
Format                         : AAC LC
Format/Info                    : Advanced Audio Codec Low Complexity
Codec ID                       : mp4a-40-2
Duration                       : 1 h 51 min
Duration_LastFrame             : -11 ms
Bit rate mode                  : Constant
Bit rate                       : 398 kb/s
Channel(s)                     : 2 channels
Channel layout                 : L R
Sampling rate                  : 48.0 kHz
Frame rate                     : 46.875 FPS (1024 SPF)
Compression mode               : Lossy
Stream size                    : 317 MiB (8%)
Language                       : English
Default                        : Yes
Alternate group                : 1

视频截图

下载地址

硬字幕 致命感应.未删减.Malignant.2021.HD1080P.X264.AAC.English.CHS-ENG.Mp4er 3.76GB:magnet:?xt=urn:btih:851BE751FEEB0599891D28A546739A3E5939415A

无字幕 Malignant.2021.1080p.HMAX.WEBRip.DD5.1.x264-CM 6.72GB:magnet:?xt=urn:btih:DF93D36E6567A2634CADC9D6C0BC093372824161

字幕下载:https://subhd.tv/a/523297

[致命感应]Malignant.2021.2160p.WEB-DL.DD5.1.HDR.H265.中英特效字幕.BOBO 14.26GB:magnet:?xt=urn:btih:536035FF1CEB682FD512A5A7165ABBF315E4546A

留下评论

Secured By miniOrange