[2021美国喜剧动作] Free Guy:失控玩家 [中英字幕][BD-MKV-1080p]

%title插图%num

◎译  名 失控玩家 / 分身人 / 爆机自由仁(港) / 脱稿玩家(台) / 自由之人 / 自由人
◎片  名 Free Guy
◎年  代 2021
◎产  地 美国 / 加拿大
◎类  别 喜剧 / 动作 / 科幻
◎语  言 英语
◎上映日期 2021-08-27(中国大陆) / 2021-08-10(洛迦诺电影节) / 2021-08-13(美国)
◎IMDb评分 7.5/10 (71,680人评价)
◎IMDb链接 https://www.imdb.com/title/tt6264654/
◎豆瓣评分 7.7/10 (366437人评价)
◎豆瓣链接 https://movie.douban.com/subject/30337388/
◎片  长 115分钟
◎导  演 肖恩·利维 Shawn Levy (id:1289935)
◎编  剧 马特·利伯曼 Matt Lieberman (id:1405591)
       扎克·佩恩 Zak Penn (id:1294247)
◎演  员 瑞安·雷诺兹 Ryan Reynolds (id:1053623)
       朱迪·科默 Jodie Comer (id:1338497)
       乔·基瑞 Joe Keery (id:1360284)
       里尔·莱尔·哈瓦瑞 Lil Rel Howery (id:1369571)
       塔伊加·维迪提 Taika Waititi (id:1076354)
       乌特卡什·安邦德卡尔 Utkarsh Ambudkar (id:1237549)
       查宁·塔图姆 Channing Tatum (id:1031224)
       休·杰克曼 Hugh Jackman (id:1010508)
       道恩·强森 Dwayne Johnson (id:1044707)
       克里斯·埃文斯 Chris Evans (id:1017885)
       约翰·卡拉辛斯基 John Krasinski (id:1027146)
       蒂娜·菲 Tina Fey (id:1044730)
       卡米尔·科斯塔克 Camille Kostek (id:1455818)
       布丽特妮·欧德福特 Britne Oldford (id:1315781)
       肯尼斯·以色列 Kenneth Israel (id:1405785)
       亚历克斯·崔贝克 Alex Trebek (id:1009563)
       劳拉·斯宾塞 Lara Spencer (id:1224338)
       马修·卡德罗普 Matthew Cardarople (id:1204213)
       迈克尔·陶 Michael Tow (id:1413070)
       野村祐人 Eugene Nomura (id:1045742)
       Raj Jawa Raj Jawa (id:1024623)
       何塞·冈斯·阿尔维斯 Jose Guns Alves (id:1446090)
       欧文·伯克 Owen Burke (id:1387221)
       加布里埃尔·洛莱斯 Gabrielle Lorthe (id:1413068)
       雷吉纳·托芬 Regina Taufen (id:1207022)
       珍妮尔·费格利 Janelle Feigley (id:1446088)
       泰特·弗莱彻 Tait Fletcher (id:1389967)
       香农·哈特曼 Shannon Hartman (id:1379598)
       金伯利·豪威 Kimberly Howe (id:1359658)
       Aaron W Reed Aaron W Reed (id:1460787)
       阿纳斯塔西亚·齐卡那瓦 Anastasia Tsikhanava (id:1412302)
       大卫·莫威克 David Morwick (id:1304942)
       阿德里安·M·蒙波因特 Adrian M. Mompoint (id:1413072)
       多梅尼克·阿尔迪诺 Domenic Arduino (id:1411091)
       格里格·伯兰蒂 Greg Berlanti (id:1018094)
       丹·列文 Dan Levine (id:1369598)
       肖恩·利维 Shawn Levy (id:1289935)
       乔什·麦克拉伦 Josh McLaglen (id:1032698)
       瑞安·雷诺兹 Ryan Reynolds (id:1053623)
       克里斯托弗·贝克 Christophe Beck (id:1278180)
       乔治·瑞奇蒙 George Richmond (id:1434359)
       罗纳·克雷斯 Ronna Kress (id:1055276)
       伊桑·托布曼 Ethan Tobman (id:1150097)
       比特·弗鲁蒂格 Beat Frutiger (id:1284270)
       莱斯利·E·罗林斯 Leslie E. Rollins (id:1295961)
       玛琳·斯图尔特 Marlene Stewart (id:1051194)

◎标  签 科幻 /  / 喜剧 / 搞笑 / 美国 / 奇幻 / 2021 / 冒险

◎简  介
  银行出纳员盖(瑞安·雷诺兹 饰)发现自己其实是开放世界电子游戏中的背景角色,于是决定成为英雄,并改写自己的故事。现在,在一个没有限制的世界里,他决心以自己的方式拯救他的世界,以免为时过晚。

视频信息

General
Unique ID                      : 340032346575907005825142271968215164633 (0xFFCFD90B96B628D7B5BAE93EBC59E6D9)
Complete name                  : E:\DSfile\追光寻影(zgxybbs.fdns.uk)失控玩家.院线中英字幕.中文字幕.Free Guy 2021 Bluray 1080p DTS-HDMA7.1 x264-原盘制作\追光寻影(zgxybbs.fdns.uk)失控玩家.院线中英字幕.中文字幕.Free Guy 2021 Bluray 1080p DTS-HDMA7.1 x264-原盘制作.mkv
Format                         : Matroska
Format version                 : Version 4
File size                      : 17.3 GiB
Duration                       : 1 h 54 min
Overall bit rate mode          : Variable
Overall bit rate               : 21.5 Mb/s
Movie name                     : Free Guy 2021
Encoded date                   : UTC 2021-09-25 00:57:05
Writing application            : mkvmerge v39.0.0 ('In The Waiting Line') 64-bit
Writing library                : libebml v1.3.9 + libmatroska v1.5.2

Video
ID                             : 1
Format                         : AVC
Format/Info                    : Advanced Video Codec
Format profile                 : Main@L4
Format settings                : CABAC / 1 Ref Frames
Format settings, CABAC         : Yes
Format settings, Reference fra : 1 frame
Codec ID                       : V_MPEG4/ISO/AVC
Duration                       : 1 h 54 min
Bit rate                       : 16.2 Mb/s
Width                          : 1 920 pixels
Height                         : 804 pixels
Display aspect ratio           : 2.40:1
Frame rate mode                : Constant
Frame rate                     : 23.976 (23976/1000) FPS
Color space                    : YUV
Chroma subsampling             : 4:2:0
Bit depth                      : 8 bits
Scan type                      : Progressive
Bits/(Pixel*Frame)             : 0.439
Stream size                    : 13.0 GiB (75%)
Default                        : Yes
Forced                         : No

Audio #1
ID                             : 2
Format                         : AAC LC
Format/Info                    : Advanced Audio Codec Low Complexity
Codec ID                       : A_AAC-2
Duration                       : 1 h 54 min
Bit rate                       : 128 kb/s
Channel(s)                     : 2 channels
Channel layout                 : L R
Sampling rate                  : 44.1 kHz
Frame rate                     : 43.066 FPS (1024 SPF)
Compression mode               : Lossy
Stream size                    : 105 MiB (1%)
Language                       : English
Default                        : Yes
Forced                         : No

Audio #2
ID                             : 3
Format                         : DTS ES XLL
Format/Info                    : Digital Theater Systems
Commercial name                : DTS-HD Master Audio
Codec ID                       : A_DTS
Duration                       : 1 h 54 min
Bit rate mode                  : Variable
Bit rate                       : 5 071 kb/s
Channel(s)                     : 8 channels
Channel layout                 : C L R Ls Rs LFE Lb Rb
Sampling rate                  : 48.0 kHz
Frame rate                     : 93.750 FPS (512 SPF)
Bit depth                      : 24 bits
Compression mode               : Lossless
Stream size                    : 4.07 GiB (24%)
Language                       : English
Default                        : No
Forced                         : No

Text #1
ID                             : 4
Format                         : PGS
Muxing mode                    : zlib
Codec ID                       : S_HDMV/PGS
Codec ID/Info                  : Picture based subtitle format used on BDs/HD-DVDs
Duration                       : 1 h 45 min
Bit rate                       : 70.0 kb/s
Count of elements              : 3749
Stream size                    : 52.7 MiB (0%)
Language                       : Chinese
Default                        : Yes
Forced                         : No

Text #2
ID                             : 5
Format                         : PGS
Muxing mode                    : zlib
Codec ID                       : S_HDMV/PGS
Codec ID/Info                  : Picture based subtitle format used on BDs/HD-DVDs
Duration                       : 1 h 45 min
Bit rate                       : 37.3 kb/s
Count of elements              : 3749
Stream size                    : 28.1 MiB (0%)
Language                       : Chinese
Default                        : No
Forced                         : No

Text #3
ID                             : 6
Format                         : PGS
Muxing mode                    : zlib
Codec ID                       : S_HDMV/PGS
Codec ID/Info                  : Picture based subtitle format used on BDs/HD-DVDs
Duration                       : 1 h 45 min
Bit rate                       : 70.3 kb/s
Count of elements              : 3749
Stream size                    : 53.0 MiB (0%)
Language                       : Chinese
Default                        : No
Forced                         : No

Text #4
ID                             : 7
Format                         : PGS
Muxing mode                    : zlib
Codec ID                       : S_HDMV/PGS
Codec ID/Info                  : Picture based subtitle format used on BDs/HD-DVDs
Duration                       : 1 h 45 min
Bit rate                       : 37.7 kb/s
Count of elements              : 3749
Stream size                    : 28.4 MiB (0%)
Language                       : Chinese
Default                        : No
Forced                         : No

Text #5
ID                             : 8
Format                         : PGS
Muxing mode                    : zlib
Codec ID                       : S_HDMV/PGS
Codec ID/Info                  : Picture based subtitle format used on BDs/HD-DVDs
Duration                       : 1 h 45 min
Bit rate                       : 58.5 kb/s
Count of elements              : 4270
Stream size                    : 44.2 MiB (0%)
Language                       : English
Default                        : No
Forced                         : No

Menu
00:00:00.000                   : 第 01 章
00:05:09.100                   : 第 02 章
00:08:43.815                   : 第 03 章
00:14:29.702                   : 第 04 章
00:21:25.701                   : 第 05 章
00:24:06.028                   : 第 06 章
00:28:25.245                   : 第 07 章
00:34:21.810                   : 第 08 章
00:39:40.837                   : 第 09 章
00:44:10.731                   : 第 10 章
00:48:47.967                   : 第 11 章
00:52:47.748                   : 第 12 章
00:56:18.375                   : 第 13 章
01:00:17.739                   : 第 14 章
01:04:41.920                   : 第 15 章
01:09:13.816                   : 第 16 章
01:15:13.300                   : 第 17 章
01:19:14.083                   : 第 18 章
01:23:59.326                   : 第 19 章
01:28:06.406                   : 第 20 章
01:33:07.415                   : 第 21 章
01:39:19.954                   : 第 22 章
01:44:22.506                   : 第 23 章
01:46:13.993                   : 第 24 章

视频截图

下载地址

失控玩家.院线中英字幕.中文字幕.Free Guy 2021 Bluray 1080p DTS-HDMA7.1 x264-原盘制作 17.3GB:magnet:?xt=urn:btih:352065648DB875F65BD1B9EF560A894D0C7B2A2D

失控玩家[中文字幕].Free.Guy.2021.Bluray.1080p.DTS-HDMA7.1.x264-10008@BBQDDQ.COM 15.05GB:magnet:?xt=urn:btih:996436D29A6CC438DCFACD2CD49B1E814F1523AB

失控玩家[中文字幕].Free.Guy.2021.Bluray.1080p.DTS-HDMA7.1.x265.10bit-10008@BBQDDQ.COM 10.34GB:magnet:?xt=urn:btih:4A360DDFFD61266CF60F1DBB869393966CCE1957

[失控玩家]Free.Guy.2021.1080p.Blu-ray.国英双语.中英特效.DTS-HD.MA7.1.BOBO 12.03GB:magnet:?xt=urn:btih:FCAB39EB145FC965F88B72C508BF766DA5992EDA

留下评论

Secured By miniOrange