[2021大陆剧情] 中国医生[4k/1080p]

%title插图%num

◎译  名 中国医生 / 中国·医生 / Chinese Doctors
◎年  代 2021
◎产  地 中国大陆
◎类  别 剧情 / 灾难
◎语  言 汉语普通话
◎上映日期 2021-07-09(中国大陆)
◎IMDb链接 https://www.imdb.com/title/tt13696296/
◎豆瓣评分 6.9/10 (161000人评价)
◎豆瓣链接 https://movie.douban.com/subject/35087699/
◎片  长 129分钟
◎导  演 刘伟强 Andrew Lau (id:1106979)
◎编  剧 于勇敢 Yonggan Yu (id:1419542)
◎演  员 张涵予 Hanyu Zhang (id:1274319)
      袁泉 Quan Yuan (id:1010504)
      朱亚文 Yawen Zhu (id:1312699)
      李晨 Chen Li (id:1274252)
      易烊千玺 Jackson Yee (id:1340022)
      欧豪 Hao Ou (id:1337644)
      周也 Ye Zhou (id:1412762)
      冯文娟 Wenjuan Feng (id:1325753)
      耿乐 Le Geng (id:1274576)
      梁大维 Dawei Liang (id:1313231)
      小爱 Hao Liu (id:1339968)
      雅玫 Yamei Zhang (id:1328280)
      杨祺如 Qiru Yang (id:1413270)
      叶禾 He Ye (id:1369940)
      蒋林燕 Linyan Jiang (id:1346433)
      梅婷 Ting Mei (id:1047083)
      李沁 Qin Li (id:1274844)
      张天爱 Tian’ai Zhang (id:1353578)
      宋佳 Jia Song (id:1042341)
      俞飞鸿 Faye Yu (id:1014618)
      倪虹洁 Hongjie Ni (id:1274649)
      冯绍峰 Shaofeng Feng (id:1275721)
      周笔畅 Bichang Zhou (id:1274425)
      张颂文 Songwen Zhang (id:1314329)
      张子枫 Zifeng Zhang (id:1274254)
      佟丽娅 Liya Tong (id:1275756)
      谷嘉诚 Jason Gu (id:1356456)
      刘威 Wei Liu (id:1313885)
      刘佳 Jia Liu (id:1312909)
      赵宁宇 Ningyu Zhao (id:1275776)
      王挺 Ting Wang (id:1314471)
      余皑磊 Ailei Yu (id:1313809)
      黄璐 Lu Huang (id:1276144)
      印小天 Xiaotian Yin (id:1274888)
      张嘉倪 Jiani Zhang (id:1314636)
      释小龙 Siu Lung Sik (id:1014738)
      高戈 Ge Gao (id:1413271)
      刘琳 Lin Liu (id:1116446)
      来喜 Laixi (id:1321645)
      万国鹏 Guopeng Wan (id:1350013)
      王昭 Zhao Wang (id:1350000)
      石昊正 Haozheng Shi (id:1352902)
      于冬 Dong Yu (id:1317865)
      刘伟强 Andrew Lau (id:1106979)
      李锦文 Peggy Lee Kam-Man (id:1321355)
      蒋德富 Defu Jiang (id:1423660)
      曲吉小江 Xiaojiang Quji (id:1423706)

◎标  签 抗疫 / 真实事件改编 / 疫情 / 温情 / 中国大陆 / 人性 / 2021 / 社会

◎简  介
  电影根据新冠肺炎疫情防控斗争的真实事件改编,以武汉市金银潭医院为核心故事背景,同时兼顾武汉同济医院、武汉市肺科医院、武汉协和医院、武汉大学人民医院(湖北省人民医院)、火神山医院、方舱医院等兄弟单位,以武汉医护人员、全国各省市援鄂医疗队为人物原型,全景式记录波澜壮阔、艰苦卓绝的抗疫斗争。

视频信息

General
Unique ID                      : 265745496967346874841678681435710605600 (0xC7ECB894BCB2BF09CBCA8FA86AF2C920)
Complete name                  : D:\迅雷下载\【更多高清电影访问 www.BBQDDQ.com】中国医生[国语配音+中文字幕].Chinese.Doctors.2021.2160p.WEB-DL.H265.DDP5.1.Atoms-10006@BBQDDQ.COM 3.54GB\中国医生.Chinese.Doctors.2021.2160p.WEB-DL.H265.DDP5.1.Atoms-10006@BBQDDQ.COM.mkv
Format                         : Matroska
Format version                 : Version 4
File size                      : 3.54 GiB
Duration                       : 2 h 8 min
Overall bit rate               : 3 954 kb/s
Encoded date                   : UTC 2021-09-19 02:46:09
Writing application            : mkvmerge v51.0.0 ('I Wish') 64-bit
Writing library                : libebml v1.4.0 + libmatroska v1.6.2

Video
ID                             : 1
Format                         : HEVC
Format/Info                    : High Efficiency Video Coding
Format profile                 : Main@L5@Main
Codec ID                       : V_MPEGH/ISO/HEVC
Duration                       : 2 h 8 min
Bit rate                       : 3 314 kb/s
Width                          : 3 840 pixels
Height                         : 1 608 pixels
Display aspect ratio           : 2.40:1
Frame rate mode                : Constant
Frame rate                     : 24.000 FPS
Color space                    : YUV
Chroma subsampling             : 4:2:0
Bit depth                      : 8 bits
Bits/(Pixel*Frame)             : 0.022
Stream size                    : 2.96 GiB (84%)
Default                        : Yes
Forced                         : No

Audio #1
ID                             : 2
Format                         : E-AC-3 JOC
Format/Info                    : Enhanced AC-3 with Joint Object Coding
Commercial name                : Dolby Digital Plus with Dolby Atmos
Codec ID                       : A_EAC3
Duration                       : 2 h 8 min
Bit rate mode                  : Constant
Bit rate                       : 448 kb/s
Channel(s)                     : 6 channels
Channel layout                 : L R C LFE Ls Rs
Sampling rate                  : 48.0 kHz
Frame rate                     : 31.250 FPS (1536 SPF)
Compression mode               : Lossy
Stream size                    : 410 MiB (11%)
Language                       : Chinese
Service kind                   : Complete Main
Default                        : Yes
Forced                         : No
Complexity index               : 12
Number of dynamic objects      : 11
Bed channel count              : 1 channel
Bed channel configuration      : LFE

Audio #2
ID                             : 3
Format                         : AAC LC
Format/Info                    : Advanced Audio Codec Low Complexity
Codec ID                       : A_AAC-2
Duration                       : 2 h 8 min
Bit rate                       : 192 kb/s
Channel(s)                     : 2 channels
Channel layout                 : L R
Sampling rate                  : 44.1 kHz
Frame rate                     : 43.066 FPS (1024 SPF)
Compression mode               : Lossy
Stream size                    : 174 MiB (5%)
Language                       : Chinese
Default                        : No
Forced                         : No

视频截图

下载地址

中国医生[国语配音+中文字幕].Chinese.Doctors.2021.2160p.WEB-DL.H265.DDP5.1.Atoms-10006@BBQDDQ.COM 3.54GB:magnet:?xt=urn:btih:9C29863E4DFC405464A5B845D1CDEF7A821E0BFF

中国医生[国语配音+中文字幕].Chinese.Doctors.2021.1080p.WEB-DL.H264.DDP5.1.Atoms-10006@BBQDDQ.COM 2.31GB:magnet:?xt=urn:btih:72A4B3D1C21532B9BE2D014D50ECECB63247CA17

留下评论

Secured By miniOrange