2021美国科幻惊悚 The Forever Purge:人类清除计划5 [中文字幕][BD-MKV-1080p]

%title插图%num

◎译  名 人类清除计划5/人类清除计划:自由永恒/人类清除计划完结篇/国定杀戮日:无限狂屠(港)
◎片  名 The Forever Purge
◎年  代 2021
◎产  地 美国
◎类  别 科幻 / 惊悚 / 犯罪
◎语  言 英语
◎上映日期 2021-07-02(美国)
◎IMDb评分 5.6/10 from 4190 users
◎IMDb链接 https://www.imdb.com/title/tt10327252/
◎豆瓣评分 6.4/10 from 359 users
◎豆瓣链接 https://movie.douban.com/subject/33446014/
◎片  长 103分钟
◎导  演 埃弗拉多·瓦莱里奥·古特 Everardo Valerio Gout
◎编  剧 詹姆斯·德莫纳克 James DeMonaco
◎主  演 安娜·德拉·雷古拉 Ana de la Reguera
      特诺切·韦尔塔 Tenoch Huerta
      乔什·卢卡斯 Josh Lucas
      卡西迪·弗里曼 Cassidy Freeman
      莱文·兰宾 Leven Rambin
      亚历杭德罗·埃达 Alejandro Edda
      威尔·帕顿 Will Patton
      格雷戈里·萨拉戈萨 Gregory Zaragoza
      萨米·罗蒂比 Sammi Rotibi
      威尔·布里顿 Will Brittain
      加里·诺希利 Gary Nohealii
       Joe Williams
      拉桑德拉·吉布森 LaSaundra Gibson
      霍普·劳伦 Hope Lauren
      科达·贝泽尔 Coda Boesel
      肖·琼斯 Shaw Jones
      乔治·杜威 Jeffrey Doornbos
      维罗尼卡·法尔孔 Veronica Falcón
      马克·克雷尼克 Mark Krenik
      苏西·阿布罗梅特 Susie Abromeit
      安东尼·莫利纳利 Anthony Molinari
      斯科特·道格拉斯麦·克拉克伦 Scott MacLachlan

◎标  签 惊悚 | 恐怖 | 美国 | 动作 | 美国电影 | 科幻 | 2021 | 黑色幽默

◎简  介

故事紧接《人类清除计划3》。从贩毒集团手中脱逃的阿德拉与丈夫胡安自墨西哥来到美国得克萨斯州生活,后者在塔克家族的牧场工作。胡安深受塔克一家的族长,凯莱布的赏识,但这也让凯莱布之子迪伦心生妒忌。但在一年一度的“人类清除计划”过后的早上,一支地下组织意图将杀戮继续进行下去,让全美陷入狂乱之中。包括迪伦妻子和妹妹在内的塔克一家也遭受波及,迫使众人联合起来对付暴徒,并设法逃入开放边境仅有六小时的墨西哥。

视频信息

General
 Unique ID                      : 233309562549706822723548493897238412897 (0xAF85C98B5AD96A39B731B9DBC1897E61)
 Complete name                  : D:\迅雷下载\追光寻影(zgxyi.fdns.uk)人类清除计划5.中文字幕 The.Forever.Purge.2021.1080p.WEBRip.DD5.1.x264-纯净版.mkv
 Format                         : Matroska
 Format version                 : Version 4
 File size                      : 5.07 GiB
 Duration                       : 1 h 43 min
 Overall bit rate               : 7 009 kb/s
 Encoded date                   : UTC 2021-07-17 06:40:28
 Writing application            : mkvmerge v39.0.0 ('In The Waiting Line') 64-bit
 Writing library                : libebml v1.3.9 + libmatroska v1.5.2
 Video
 ID                             : 1
 Format                         : AVC
 Format/Info                    : Advanced Video Codec
 Format profile                 : High@L4
 Format settings                : CABAC / 4 Ref Frames
 Format settings, CABAC         : Yes
 Format settings, Reference fra : 4 frames
 Codec ID                       : V_MPEG4/ISO/AVC
 Duration                       : 1 h 43 min
 Bit rate                       : 6 623 kb/s
 Width                          : 1 918 pixels
 Height                         : 1 038 pixels
 Display aspect ratio           : 1.85:1
 Frame rate mode                : Constant
 Frame rate                     : 23.976 (24000/1001) FPS
 Color space                    : YUV
 Chroma subsampling             : 4:2:0
 Bit depth                      : 8 bits
 Scan type                      : Progressive
 Bits/(Pixel*Frame)             : 0.139
 Stream size                    : 4.79 GiB (94%)
 Default                        : Yes
 Forced                         : No
 Color range                    : Limited
 Color primaries                : BT.709
 Transfer characteristics       : BT.709
 Matrix coefficients            : BT.709
 Audio
 ID                             : 3
 Format                         : AC-3
 Format/Info                    : Audio Coding 3
 Commercial name                : Dolby Digital
 Codec ID                       : A_AC3
 Duration                       : 1 h 43 min
 Bit rate mode                  : Constant
 Bit rate                       : 384 kb/s
 Channel(s)                     : 6 channels
 Channel layout                 : L R C LFE Ls Rs
 Sampling rate                  : 48.0 kHz
 Frame rate                     : 31.250 FPS (1536 SPF)
 Compression mode               : Lossy
 Stream size                    : 284 MiB (5%)
 Title                          : English
 Language                       : English
 Service kind                   : Complete Main
 Default                        : No
 Forced                         : No
 Text #1
 ID                             : 2
 Format                         : ASS
 Codec ID                       : S_TEXT/ASS
 Codec ID/Info                  : Advanced Sub Station Alpha
 Duration                       : 1 h 36 min
 Bit rate                       : 150 b/s
 Count of elements              : 1154
 Compression mode               : Lossless
 Stream size                    : 106 KiB (0%)
 Title                          : 中文字幕
 Language                       : Chinese
 Default                        : Yes
 Forced                         : No
 Text #2
 ID                             : 4
 Format                         : UTF-8
 Codec ID                       : S_TEXT/UTF8
 Codec ID/Info                  : UTF-8 Plain Text
 Duration                       : 1 h 30 min
 Bit rate                       : 2 b/s
 Count of elements              : 78
 Stream size                    : 1.78 KiB (0%)
 Title                          : English [Forced]
 Language                       : English
 Default                        : No
 Forced                         : Yes
 Text #3
 ID                             : 5
 Format                         : UTF-8
 Codec ID                       : S_TEXT/UTF8
 Codec ID/Info                  : UTF-8 Plain Text
 Duration                       : 1 h 43 min
 Bit rate                       : 65 b/s
 Count of elements              : 1770
 Stream size                    : 49.9 KiB (0%)
 Title                          : English [SDH]
 Language                       : English
 Default                        : No
 Forced                         : No
 Text #4
 ID                             : 6
 Format                         : UTF-8
 Codec ID                       : S_TEXT/UTF8
 Codec ID/Info                  : UTF-8 Plain Text
 Duration                       : 1 h 37 min
 Bit rate                       : 49 b/s
 Count of elements              : 1334
 Stream size                    : 35.4 KiB (0%)
 Title                          : English
 Language                       : English
 Default                        : No
 Forced                         : No

视频截图

下载地址

R类清除计划1.2013.BD.1080P.x264-中英双字3.79g:magnet:?xt=urn:btih:567EE1E0197702EC9E689FF14EEE5366AB90B104

R类清除计划2.2014.BD.1080P.x264-中英双字4.5g:magnet:?xt=urn:btih:7ABBEA8203687C5D5020C98E8A6C04A09F89427B

R类清除计划3.2016.BD.1080P.x264-中英双字4.68g:magnet:?xt=urn:btih:8C4DBE81740B11E5B07EA0B70883590C0587691B

R类清除计划4.2018.BD.1080P.x264-中英双字4.19:magnet:?xt=urn:btih:50659C69B28318D6A4DCF498C73CC4A4C2B0FF66

人类清除计划5.中文字幕 The.Forever.Purge.2021.1080p.WEBRip.DD5.1.x264-纯净版 5.07GB:magnet:?xt=urn:btih:F38CA4DB3F7B0F5B7E05FD66853E11EA7D9A2209

人类清除计划5.中英字幕.The.Forever.Purge.2021.BluRay.1080p.AC3.x264-纯净版 7.47GB:magnet:?xt=urn:btih:E70B7986E51F06B24B290C405543A1AEF92A3CFB

留下评论

Secured By miniOrange