[2021美国悬疑惊悚]Escape Room: Tournament of Champions :密室逃生2 [中英字幕][WEB-MKV-1080p]

%title插图%num

◎译  名 密室逃生2/Escape Room: Tournament of Champions/密室逃杀: 幸存者游戏(港)/密室逃杀2/密弑游戏2:胜者危亡(台)
◎片  名 Escape Room 2
◎年  代 2021
◎产  地 美国
◎类  别 悬疑 / 惊悚
◎语  言 英语
◎上映日期 2021-07-16(美国)
◎IMDB评分 6.0/10 from 9741 users
◎IMDB链接 https://www.imdb.com/title/tt9844522/
◎豆瓣评分 7.0/10 from 3872 users
◎豆瓣链接 https://movie.douban.com/subject/30469922/
◎片  长 88分钟
◎导  演 亚当·罗比特尔 Adam Robitel
◎编  剧 弗里德里希·博姆 Friedrich B?hm / 玛丽亚·梅尔尼克 Maria Melnik / 布拉吉·F·舒特 Bragi F. Schut / 奥伦·尤济尔 Oren Uziel
◎主  演 泰勒·拉塞尔 Taylor Russell
      洛根·米勒 Logan Miller
      托马斯·康奎尔 Thomas Cocquerel
      霍兰·罗登 Holland Roden
      茵蒂娅·摩尔 Indya Moore
      卡利托·奥利维罗 Carlito Olivero
      杰伊·欧文 Jay Erving
      詹姆斯·弗莱恩 James Frain
      坦娅·范·格拉恩 Tanya van Graan
      杰米斯·巴特勒 Jaymes Butler
      埃文·亨斯特 Evan Hengst
      蕾妮·戴蒙德 Renee Diamond
      伊莎贝拉·弗尔曼 Isabelle Fuhrman
      阿维亚娜·亚伯拉罕 Avianah Abrahams

◎标  签 密室 | 悬疑 | 解谜 | 冒险 | 惊悚 | 美国 | 人性 | 犯罪

◎简  介

好莱坞惊悚大片《密室逃生2》由《速度与激情》系列金牌制片人重磅打造,前作曾创下中国影史进口惊悚片票房冠军。续作在闯关难度和惊险刺激程度上全面升级,集结全球顶级玩家合力解锁超高难度密室,开启命悬一线的残酷生存之战。

视频信息

General
Unique ID                      : 22643908999836532812602734894395998283 (0x11090EE8D257CCA9271ACF431BE4C04B)
Complete name                  : E:\DSfile\追光寻影(zgxyi.fdns.uk)密室逃生2.中英字幕.Escape.Room.Tournament.of.Champions.2021.1080p.WEB.DD5.1.H264-纯净版\追光寻影(zgxyi.fdns.uk)密室逃生2.中英字幕.Escape.Room.Tournament.of.Champions.2021.1080p.WEB.DD5.1.H264-纯净版.mkv
Format                         : Matroska
Format version                 : Version 4
File size                      : 4.65 GiB
Duration                       : 1 h 35 min
Overall bit rate               : 6 954 kb/s
Encoded date                   : UTC 2021-09-07 17:37:38
Writing application            : mkvmerge v39.0.0 ('In The Waiting Line') 64-bit
Writing library                : libebml v1.3.9 + libmatroska v1.5.2

Video
ID                             : 1
Format                         : AVC
Format/Info                    : Advanced Video Codec
Format profile                 : High@L4
Format settings                : CABAC / 5 Ref Frames
Format settings, CABAC         : Yes
Format settings, Reference fra : 5 frames
Codec ID                       : V_MPEG4/ISO/AVC
Duration                       : 1 h 35 min
Bit rate                       : 6 568 kb/s
Width                          : 1 920 pixels
Height                         : 800 pixels
Display aspect ratio           : 2.40:1
Frame rate mode                : Constant
Frame rate                     : 23.976 (24000/1001) FPS
Color space                    : YUV
Chroma subsampling             : 4:2:0
Bit depth                      : 8 bits
Scan type                      : Progressive
Bits/(Pixel*Frame)             : 0.178
Stream size                    : 4.39 GiB (94%)
Default                        : Yes
Forced                         : No
Color range                    : Limited
Color primaries                : BT.709
Transfer characteristics       : BT.709
Matrix coefficients            : BT.709

Audio
ID                             : 2
Format                         : AC-3
Format/Info                    : Audio Coding 3
Commercial name                : Dolby Digital
Codec ID                       : A_AC3
Duration                       : 1 h 35 min
Bit rate mode                  : Constant
Bit rate                       : 384 kb/s
Channel(s)                     : 6 channels
Channel layout                 : L R C LFE Ls Rs
Sampling rate                  : 48.0 kHz
Frame rate                     : 31.250 FPS (1536 SPF)
Compression mode               : Lossy
Stream size                    : 263 MiB (6%)
Title                          : English
Language                       : English
Service kind                   : Complete Main
Default                        : No
Forced                         : No

Text
ID                             : 3
Format                         : ASS
Codec ID                       : S_TEXT/ASS
Codec ID/Info                  : Advanced Sub Station Alpha
Duration                       : 1 h 28 min
Bit rate                       : 220 b/s
Count of elements              : 1330
Compression mode               : Lossless
Stream size                    : 143 KiB (0%)
Title                          : 追光寻影(zgxyi.fdns.uk)中英字幕
Language                       : Chinese
Default                        : Yes
Forced                         : No

视频截图

下载地址

密室逃生2.中英字幕.Escape.Room.Tournament.of.Champions.2021.1080p.WEB.DD5.1.H264-纯净版 4.65GB:magnet:?xt=urn:btih:543BDD44C760A69822FBFFFC33E5E47D6DF91FFD

[密室逃生].Escape.Room.2019.BD.1080P.x265.10bit.DD5.1.英国双语.内封特效中英-FFansBD 3.85GB:magnet:?xt=urn:btih:3CB00353BE0E38E96261258DEC6163EDADAE6BDB

留下评论

Secured By miniOrange